<?xml version="1.0" standalone="no"?>
<!DOCTYPE svg PUBLIC "-//W3C//DTD SVG 1.1//EN" "http://www.w3.org/Graphics/SVG/1.1/DTD/svg11.dtd" >
<svg xmlns="http://www.w3.org/2000/svg">
<metadata>Generated by IcoMoon</metadata>
<defs>
<font id="ficons" horiz-adv-x="1024">
<font-face units-per-em="1024" ascent="960" descent="-64" />
<missing-glyph horiz-adv-x="1024" />
<glyph unicode="&#x20;" horiz-adv-x="512" d="" />
<glyph unicode="&#xe900;" glyph-name="contact-minister" d="M471.040 144.896h-98.304v129.024c2.048 8.192 0 16.384-6.144 20.48l-49.152 38.912c10.24-4.096 22.528-6.144 32.768-6.144s18.432 8.192 18.432 18.432c0 10.24-8.192 18.432-18.432 18.432-43.008 0-92.16 53.248-96.256 104.448v2.048c0 0 0 2.048 0 2.048v0 51.2l-16.384 2.048c-6.144 0-12.288 8.192-12.288 18.432s6.144 18.432 12.288 18.432l16.384 2.048v32.768h124.928c10.24 0 18.432 8.192 18.432 18.432s-8.192 18.432-18.432 18.432h-188.416v8.192h188.416c10.24 0 18.432 8.192 18.432 18.432s-8.192 18.432-18.432 18.432h-188.416v8.192h323.584v-6.144c0-10.24 8.192-18.432 18.432-18.432s18.432 8.192 18.432 18.432v6.144c0 18.432-12.288 32.768-28.672 36.864-16.384 36.864-90.112 65.536-169.984 65.536s-151.552-28.672-169.984-65.536c-16.384-4.096-30.72-18.432-30.72-36.864v-6.144c0-6.144 2.048-14.336 6.144-18.432-4.096-6.144-6.144-12.288-6.144-18.432v-6.144c0-4.096 0-6.144 2.048-10.24-6.144-16.384-16.384-45.056-26.624-83.968-14.336-59.392-28.672-122.88-30.72-221.184-81.92-22.528-90.112-98.304-90.112-124.928v-88.064h464.896c10.24 0 18.432 8.192 18.432 18.432s-8.192 16.384-18.432 16.384zM266.24 368.128l-8.192-8.192c0 0-2.048-2.048-2.048-2.048-2.048 8.192-2.048 16.384-4.096 24.576 4.096-4.096 8.192-10.24 14.336-14.336zM196.608 626.176v0 0zM471.040 724.48h-231.424c22.528 12.288 63.488 26.624 116.736 26.624 51.2 0 92.16-14.336 114.688-26.624zM165.888 531.968c6.144 26.624 14.336 49.152 20.48 65.536 2.048 0 4.096 0 6.144 0h26.624v-2.048c-18.432-8.192-28.672-28.672-28.672-51.2s12.288-40.96 28.672-51.2v-18.432c-4.096-18.432-12.288-69.632 2.048-137.216-32.768-12.288-67.584-10.24-67.584-10.24-6.144 0-10.24 0-16.384 0 2.048 90.112 14.336 149.504 28.672 204.8zM47.104 196.096c0 34.816 14.336 94.208 104.448 94.208 4.096 0 71.68-2.048 118.784 32.768l63.488-51.2v-124.928h-286.72v49.152zM964.608 611.84h-473.088c-26.624 0-49.152-22.528-49.152-49.152v-69.632l292.864-73.728 278.528 73.728v71.68c0 24.576-22.528 47.104-49.152 47.104zM442.368 435.712v-219.136c0-26.624 22.528-49.152 49.152-49.152h473.088c26.624 0 49.152 22.528 49.152 49.152v219.136l-278.528-73.728-292.864 73.728z" />
<glyph unicode="&#xe901;" glyph-name="adobe" d="M1003.52 335.36c-24.576 40.96-86.016 59.392-190.464 59.392-16.384 0-30.72-2.048-47.104-4.096s-34.816-4.096-53.248-4.096c-18.432 10.24-32.768 18.432-45.056 28.672-6.144 4.096-12.288 10.24-20.48 16.384-51.2 51.2-90.112 120.832-120.832 198.656v4.096c40.96 147.456 43.008 243.712-4.096 290.816l-2.048 2.048h-2.048c-16.384 8.192-34.816 16.384-51.2 16.384h-16.384c-36.864 0-63.488-36.864-71.68-69.632-30.72-110.592-16.384-165.888 14.336-262.144-2.048-8.192-6.144-18.432-8.192-26.624-20.48-63.488-43.008-129.024-75.776-194.56-14.336-24.576-26.624-49.152-38.912-71.68-12.288-24.576-26.624-47.104-36.864-67.584-18.432-8.192-32.768-18.432-45.056-24.576-8.192-6.144-16.384-10.24-22.528-12.288-92.16-55.296-145.408-126.976-153.6-172.032v-2.048c0-16.384-2.048-24.576 8.192-40.96v-10.24l40.96-28.672c10.24-10.24 20.48-10.24 36.864-10.24 69.632 0 147.456 81.92 243.712 247.808 2.048 2.048 4.096 4.096 4.096 4.096s2.048 2.048 4.096 2.048h4.096c75.776 30.72 169.984 45.056 309.248 61.44 81.92-40.96 176.128-55.296 237.568-55.296 34.816 0 59.392 8.192 75.776 16.384h2.048l2.048 2.048c10.24 10.24 16.384 22.528 22.528 32.768 4.096 6.144 8.192 12.288 10.24 14.336l4.096 2.048v6.144c-4.096 16.384-4.096 32.768-14.336 51.2zM923.648 296.448c-28.672 0-69.632 8.192-116.736 24.576 81.92-2.048 112.64-18.432 122.88-24.576v0h-6.144zM581.632 343.552c-65.536-10.24-149.504-34.816-229.376-65.536 4.096 10.24 10.24 18.432 14.336 26.624 8.192 14.336 16.384 28.672 24.576 45.056 6.144 16.384 14.336 30.72 20.48 47.104 18.432 40.96 36.864 81.92 49.152 118.784 24.576-51.2 61.44-102.4 108.544-159.744v0c4.096-4.096 8.192-8.192 12.288-12.288zM460.8 880.128c2.048-4.096 6.144-26.624-2.048-69.632v-18.432c0-8.192-2.048-16.384-4.096-26.624-6.144 47.104-4.096 83.968 6.144 114.688v0zM192.512 157.184c-32.768-57.344-65.536-92.16-96.256-108.544 16.384 26.624 49.152 65.536 90.112 102.4 0 2.048 2.048 4.096 6.144 6.144z" />
<glyph unicode="&#xe902;" glyph-name="android" d="M235.52 204.288c0-30.72 22.528-57.344 53.248-57.344h59.392v-139.264c0-32.768 28.672-63.488 61.44-63.488h2.048c32.768 0 57.344 30.72 57.344 63.488v139.264h92.16v-139.264c0-32.768 22.528-63.488 57.344-63.488h2.048c32.768 0 63.488 30.72 63.488 63.488v139.264h57.344c30.72 0 53.248 26.624 53.248 57.344v409.6h-559.104v-409.6zM657.408 863.744l47.104 71.68c2.048 4.096 2.048 10.24-2.048 14.336-4.096 2.048-10.24 2.048-14.336-2.048l-49.152-73.728c-36.864 14.336-77.824 22.528-122.88 22.528-43.008 0-86.016-8.192-122.88-22.528l-49.152 73.728c-2.048 4.096-10.24 6.144-14.336 2.048s-6.144-10.24-2.048-14.336l47.104-71.68c-86.016-40.96-143.36-120.832-143.36-208.896 0-6.144 0-8.192 0-18.432h569.344c0 10.24 0 12.288 0 18.432 0 86.016-57.344 165.888-143.36 208.896zM385.024 734.72c-14.336 0-26.624 12.288-26.624 26.624s12.288 26.624 26.624 26.624c14.336 0 26.624-12.288 26.624-26.624s-12.288-26.624-26.624-26.624zM649.216 734.72c-14.336 0-26.624 12.288-26.624 26.624s12.288 26.624 26.624 26.624c14.336 0 26.624-12.288 26.624-26.624s-12.288-26.624-26.624-26.624zM139.264 624.128c-32.768 0-65.536-26.624-65.536-59.392v-260.096c0-32.768 32.768-55.296 65.536-55.296h2.048c32.768 0 63.488 22.528 63.488 55.296v260.096c0 32.768-30.72 59.392-63.488 59.392h-2.048zM892.928 624.128h-2.048c-32.768 0-61.44-26.624-61.44-59.392v-260.096c0-32.768 28.672-55.296 61.44-55.296h2.048c32.768 0 57.344 22.528 57.344 55.296v260.096c0 32.768-24.576 59.392-57.344 59.392z" />
<glyph unicode="&#xe903;" glyph-name="apple" d="M937.984 224.768v0c-14.336 6.144-133.12 55.296-133.12 192.512-2.048 110.592 88.064 169.984 106.496 180.224v0c2.048 2.048 4.096 2.048 4.096 6.144 0 2.048 0 4.096-2.048 6.144-61.44 86.016-157.696 100.352-196.608 100.352-6.144 0-12.288 0-16.384 0-45.056 0-88.064-16.384-122.88-28.672-24.576-8.192-45.056-16.384-59.392-16.384-16.384 0-36.864 8.192-61.44 16.384-32.768 12.288-69.632 26.624-106.496 26.624h-2.048c-90.112-2.048-174.080-51.2-221.184-126.976-88.064-147.456-32.768-370.688 65.536-505.856 49.152-67.584 98.304-129.024 167.936-129.024 2.048 0 2.048 0 4.096 0 32.768 2.048 55.296 10.24 77.824 20.48 24.576 10.24 51.2 20.48 92.16 20.48 38.912 0 63.488-10.24 88.064-20.48 22.528-10.24 47.104-20.48 83.968-18.432 75.776 2.048 122.88 67.584 165.888 124.928 43.008 61.44 65.536 118.784 71.68 141.312v0c-2.048 4.096-2.048 8.192-6.144 10.24zM509.952 706.048c4.096 0 8.192 0 10.24 0 53.248 0 110.592 28.672 149.504 73.728 40.96 47.104 61.44 108.544 55.296 163.84 0 4.096-4.096 8.192-8.192 8.192-55.296-2.048-118.784-34.816-157.696-77.824-32.768-36.864-65.536-98.304-57.344-159.744 0-6.144 4.096-8.192 8.192-8.192z" />
<glyph unicode="&#xe904;" glyph-name="arrow-down" d="M1013.76 658.944c0-20.48-8.192-40.96-22.528-57.344l-423.936-421.888c-30.72-30.72-81.92-30.72-112.64 0l-421.888 423.936c-30.72 30.72-30.72 81.92 0 112.64s81.92 30.72 112.64 0l366.592-366.592 366.592 366.592c30.72 30.72 81.92 30.72 112.64 0 14.336-16.384 22.528-36.864 22.528-57.344z" />
<glyph unicode="&#xe905;" glyph-name="arrow-left" d="M722.944-53.76c-20.48 0-40.96 8.192-57.344 22.528l-421.888 421.888c-30.72 30.72-30.72 81.92 0 112.64l423.936 423.936c30.72 30.72 81.92 30.72 112.64 0s30.72-81.92 0-112.64l-366.592-366.592 366.592-366.592c30.72-30.72 30.72-81.92 0-112.64-16.384-14.336-36.864-22.528-57.344-22.528z" />
<glyph unicode="&#xe906;" glyph-name="arrow-right" d="M301.056 949.76c20.48 0 40.96-8.192 57.344-22.528l421.888-421.888c30.72-30.72 30.72-81.92 0-112.64l-423.936-423.936c-30.72-30.72-81.92-30.72-112.64 0s-30.72 81.92 0 112.64l366.592 366.592-366.592 366.592c-30.72 30.72-30.72 81.92 0 112.64 16.384 14.336 36.864 22.528 57.344 22.528z" />
<glyph unicode="&#xe907;" glyph-name="arrow-up" d="M10.24 237.056c0 20.48 8.192 40.96 22.528 57.344l421.888 421.888c30.72 30.72 81.92 30.72 112.64 0l421.888-421.888c30.72-30.72 30.72-81.92 0-112.64s-81.92-30.72-112.64 0l-364.544 364.544-366.592-366.592c-30.72-30.72-81.92-30.72-112.64 0-14.336 16.384-22.528 36.864-22.528 57.344z" />
<glyph unicode="&#xe908;" glyph-name="blackberry" d="M241.664 828.928h-139.264l-40.96-190.464h147.456c114.688 0 147.456 57.344 147.456 106.496 0 36.864-22.528 83.968-114.688 83.968zM485.376 257.536h-141.312l-38.912-190.464h145.408c114.688 0 147.456 57.344 147.456 106.496 0 36.864-20.48 83.968-112.64 83.968zM192.512 552.448h-143.36l-38.912-190.464h147.456c114.688 0 147.456 57.344 147.456 106.496 0 36.864-22.528 83.968-112.64 83.968zM849.92 361.984h-141.312l-38.912-172.032h147.456c114.688 0 147.456 49.152 147.456 98.304-2.048 34.816-22.528 73.728-114.688 73.728zM901.12 654.848h-141.312l-38.912-172.032h147.456c114.688 0 147.456 49.152 147.456 98.304-2.048 36.864-22.528 73.728-114.688 73.728zM540.672 552.448h-141.312l-38.912-190.464h147.456c114.688 0 147.456 57.344 147.456 106.496-2.048 36.864-24.576 83.968-114.688 83.968zM591.872 828.928h-141.312l-40.96-190.464h147.456c114.688 0 147.456 57.344 147.456 106.496 0 36.864-20.48 83.968-112.64 83.968z" />
<glyph unicode="&#xe909;" glyph-name="case-status-search" d="M438.272 62.976c-184.32 0-331.776 149.504-331.776 331.776 0 137.216 81.92 258.048 208.896 309.248 18.432 8.192 38.912-2.048 47.104-20.48s-2.048-38.912-20.48-47.104c-100.352-38.912-163.84-135.168-163.84-241.664 0-143.36 116.736-260.096 260.096-260.096 30.72 0 61.44 6.144 90.112 16.384 18.432 6.144 38.912-2.048 47.104-20.48 6.144-18.432-2.048-38.912-20.48-47.104-38.912-12.288-77.824-20.48-116.736-20.48zM47.104 11.776c-10.24 0-20.48 4.096-28.672 12.288-12.288 16.384-10.24 38.912 4.096 51.2l174.080 141.312c16.384 12.288 38.912 10.24 51.2-4.096 12.288-16.384 10.24-38.912-4.096-51.2l-174.080-141.312c-6.144-6.144-14.336-8.192-22.528-8.192zM937.984 884.224h-419.84l-96.256-104.448v-507.904c0-43.008 34.816-75.776 75.776-75.776h438.272c43.008 0 75.776 34.816 75.776 75.776v536.576c2.048 40.96-32.768 75.776-73.728 75.776zM491.52 726.528c-16.384 0-28.672 12.288-28.672 28.672l88.064 88.064c16.384 0 28.672-12.288 28.672-28.672v-59.392c0-16.384-12.288-28.672-28.672-28.672h-59.392zM712.704 382.464h-147.456c-18.432 0-34.816 16.384-34.816 34.816s16.384 34.816 34.816 34.816h147.456c18.432 0 34.816-16.384 34.816-34.816s-14.336-34.816-34.816-34.816zM860.16 540.16h-294.912c-18.432 0-34.816 16.384-34.816 34.816s16.384 34.816 34.816 34.816h294.912c18.432 0 34.816-16.384 34.816-34.816s-14.336-34.816-34.816-34.816z" />
<glyph unicode="&#xe90a;" glyph-name="center-location" d="M501.76 949.76c-194.56 0-352.256-157.696-352.256-352.256 0-237.568 239.616-514.048 352.256-514.048s352.256 258.048 352.256 514.048c0 194.56-157.696 352.256-352.256 352.256zM501.76 361.984c-112.64 0-202.752 90.112-202.752 202.752s90.112 202.752 202.752 202.752c112.64 0 202.752-90.112 202.752-202.752 0-110.592-90.112-202.752-202.752-202.752zM512-53.76c-47.104 0-468.992 4.096-468.992 143.36 0 49.152 51.2 86.016 155.648 110.592 22.528 6.144 45.056-8.192 49.152-30.72 6.144-22.528-8.192-45.056-30.72-49.152-47.104-10.24-71.68-22.528-83.968-30.72 34.816-24.576 165.888-59.392 380.928-59.392s344.064 34.816 380.928 59.392c-14.336 8.192-43.008 22.528-102.4 34.816-22.528 4.096-36.864 26.624-32.768 49.152s26.624 36.864 49.152 32.768c116.736-24.576 174.080-63.488 174.080-114.688-2.048-141.312-423.936-145.408-471.040-145.408zM901.12 81.408v0 0z" />
<glyph unicode="&#xe90b;" glyph-name="chat" d="M925.696 730.624c0 0 4.096-192.512 0-258.048-2.048-51.2-30.72-192.512-204.8-192.512h-167.936l-124.928-83.968h167.936l208.896-249.856v249.856c0 0 208.896-16.384 208.896 143.36 0 161.792 0 239.616 0 239.616s8.192 98.304-88.064 151.552zM221.184 691.712c-28.672 0-53.248-22.528-53.248-53.248 0-28.672 22.528-53.248 53.248-53.248 28.672 0 53.248 22.528 53.248 53.248-2.048 30.72-24.576 53.248-53.248 53.248zM438.272 691.712c-28.672 0-53.248-22.528-53.248-53.248 0-28.672 22.528-53.248 53.248-53.248s53.248 22.528 53.248 53.248c0 30.72-22.528 53.248-53.248 53.248zM679.936 323.072c98.304 0 208.896 110.592 208.896 208.896v249.856c0 98.304-100.352 167.936-198.656 167.936h-499.712c-98.304 0-180.224-79.872-180.224-180.224v-245.76c0-94.208 71.68-172.032 163.84-180.224l2.048-260.096 294.912 239.616h208.896zM260.096 239.104v167.936l-71.68-6.144c-67.584 0-96.256 63.488-96.256 131.072v249.856c0 67.584 16.384 83.968 83.968 83.968 0 0 434.176 0 501.76 0 67.584-6.144 124.928-16.384 124.928-83.968 0 0 0-194.56 0-249.856-4.096-67.584-59.392-124.928-124.928-124.928h-249.856l-167.936-167.936zM710.656 638.464c0 28.672-22.528 53.248-53.248 53.248-28.672 0-53.248-22.528-53.248-53.248 0-28.672 22.528-53.248 53.248-53.248 28.672 2.048 53.248 24.576 53.248 53.248z" />
<glyph unicode="&#xe90c;" glyph-name="electronic-filing" d="M942.080 888.32h-391.168l-90.112-98.304v-475.136c0-38.912 32.768-71.68 71.68-71.68h409.6c38.912 0 71.68 32.768 71.68 71.68v503.808c0 38.912-32.768 69.632-71.68 69.632zM526.336 742.912c-14.336 0-26.624 12.288-26.624 26.624l83.968 83.968c14.336 0 26.624-12.288 26.624-26.624v-55.296c0-14.336-12.288-26.624-26.624-26.624h-57.344v-2.048zM733.184 419.328h-139.264c-18.432 0-32.768 14.336-32.768 32.768s14.336 32.768 32.768 32.768h137.216c18.432 0 32.768-14.336 32.768-32.768s-12.288-32.768-30.72-32.768zM870.4 566.784h-276.48c-18.432 0-32.768 14.336-32.768 32.768s16.384 32.768 32.768 32.768h276.48c18.432 0 32.768-14.336 32.768-32.768s-14.336-32.768-32.768-32.768zM385.024 173.568h-208.896c-92.16 0-165.888 73.728-165.888 165.888v372.736c0 92.16 73.728 165.888 165.888 165.888h98.304c20.48 0 36.864-16.384 36.864-36.864s-16.384-36.864-36.864-36.864h-98.304c-51.2 2.048-94.208-40.96-94.208-92.16v-370.688c0-51.2 43.008-94.208 94.208-94.208h208.896c20.48 0 36.864-16.384 36.864-36.864s-16.384-36.864-36.864-36.864zM299.008 28.16c-20.48 0-36.864 16.384-36.864 36.864v145.408c0 20.48 16.384 36.864 36.864 36.864s36.864-16.384 36.864-36.864v-145.408c-2.048-20.48-16.384-36.864-36.864-36.864zM581.632 28.16c-20.48 0-36.864 16.384-36.864 36.864v98.304c0 20.48 16.384 36.864 36.864 36.864s36.864-16.384 36.864-36.864v-98.304c-2.048-20.48-18.432-36.864-36.864-36.864zM710.656 7.68h-532.48c-20.48 0-36.864 16.384-36.864 36.864s16.384 36.864 36.864 36.864h532.48c20.48 0 36.864-16.384 36.864-36.864 0-22.528-16.384-36.864-36.864-36.864z" />
<glyph unicode="&#xe90d;" glyph-name="e-notary" d="M421.888 19.968h-313.344c-51.2 0-94.208 40.96-94.208 94.208v669.696l114.688 118.784h516.096c51.2 0 94.208-40.96 94.208-94.208v-235.52c0-22.528-18.432-38.912-38.912-38.912s-38.912 18.432-38.912 38.912v235.52c0 8.192-6.144 14.336-14.336 14.336h-483.328l-69.632-71.68v-636.928c0-8.192 6.144-14.336 14.336-14.336h313.344c22.528 0 38.912-18.432 38.912-38.912 0-22.528-16.384-40.96-38.912-40.96zM155.648 679.424h-77.824c-22.528 0-38.912 18.432-38.912 38.912s18.432 38.912 38.912 38.912h77.824c8.192 0 14.336 6.144 14.336 14.336v79.872c0 22.528 18.432 38.912 38.912 38.912s38.912-18.432 38.912-38.912v-77.824c2.048-51.2-40.96-94.208-92.16-94.208zM552.96 488.96h-342.016c-22.528 0-38.912 18.432-38.912 38.912 0 22.528 18.432 38.912 38.912 38.912h342.016c22.528 0 38.912-18.432 38.912-38.912 0-22.528-16.384-38.912-38.912-38.912zM366.592 308.736h-155.648c-22.528 0-38.912 18.432-38.912 38.912 0 22.528 18.432 38.912 38.912 38.912h155.648c22.528 0 38.912-18.432 38.912-38.912 0-22.528-18.432-38.912-38.912-38.912zM761.856 79.36c-30.72-47.104-194.56-114.688-194.56-114.688l-6.144 4.096c0 0-8.192 176.128 22.528 225.28l239.616 374.784c30.72 47.104 94.208 61.44 141.312 30.72l6.144-4.096c47.104-30.72 61.44-94.208 30.72-141.312l-239.616-374.784z" />
<glyph unicode="&#xe90e;" glyph-name="expert-register" d="M301.056 83.456h-290.816v190.464c0 90.112 73.728 161.792 161.792 161.792h67.584c16.384 0 28.672-12.288 28.672-28.672s-12.288-28.672-28.672-28.672h-67.584c-57.344 0-106.496-47.104-106.496-106.496v-135.168h233.472c16.384 0 28.672-12.288 28.672-28.672 2.048-12.288-10.24-24.576-26.624-24.576zM239.616 230.912c-16.384 0-28.672 12.288-28.672 28.672v149.504c0 16.384 12.288 28.672 28.672 28.672s28.672-12.288 28.672-28.672v-149.504c0-16.384-12.288-28.672-28.672-28.672zM161.792 249.344h-34.816c-16.384 0-28.672 12.288-28.672 28.672s12.288 28.672 28.672 28.672h34.816c16.384 0 28.672-12.288 28.672-28.672s-14.336-28.672-28.672-28.672zM235.52 388.608c-100.352 0-182.272 81.92-182.272 182.272v65.536c0 71.68 61.44 133.12 133.12 133.12h2.048c129.024-8.192 167.936 32.768 169.984 34.816 10.24 10.24 26.624 12.288 38.912 2.048s14.336-28.672 4.096-40.96c-6.144-6.144-57.344-63.488-215.040-53.248-34.816 0-75.776-32.768-75.776-75.776v-65.536c0-69.632 55.296-124.928 124.928-124.928 16.384 0 28.672-12.288 28.672-28.672s-12.288-28.672-28.672-28.672zM182.272 529.92c-32.768 0-57.344 26.624-57.344 57.344s26.624 57.344 57.344 57.344c32.768 0 57.344-26.624 57.344-57.344s-24.576-57.344-57.344-57.344zM182.272 607.744c-10.24 0-20.48-8.192-20.48-20.48s8.192-20.48 20.48-20.48 20.48 8.192 20.48 20.48-8.192 20.48-20.48 20.48zM305.152 529.92c-32.768 0-57.344 26.624-57.344 57.344s26.624 57.344 57.344 57.344c32.768 0 57.344-26.624 57.344-57.344s-24.576-57.344-57.344-57.344zM305.152 607.744c-10.24 0-20.48-8.192-20.48-20.48s8.192-20.48 20.48-20.48c10.24 0 20.48 8.192 20.48 20.48s-8.192 20.48-20.48 20.48zM301.056 607.744h-114.688c-10.24 0-18.432 8.192-18.432 18.432s8.192 18.432 18.432 18.432h112.64c10.24 0 18.432-8.192 18.432-18.432 2.048-10.24-6.144-18.432-16.384-18.432zM765.952 710.144l-59.392-71.68-59.392 71.68h-247.808v-507.904h235.52l71.68-59.392 71.68 59.392h237.568v507.904h-249.856zM612.352 329.216h-106.496c-12.288 0-24.576 10.24-24.576 24.576 0 12.288 10.24 24.576 24.576 24.576h106.496c12.288 0 24.576-10.24 24.576-24.576-2.048-14.336-12.288-24.576-24.576-24.576zM612.352 435.712h-106.496c-12.288 0-24.576 10.24-24.576 24.576 0 12.288 10.24 24.576 24.576 24.576h106.496c12.288 0 24.576-10.24 24.576-24.576-2.048-14.336-12.288-24.576-24.576-24.576zM612.352 542.208h-106.496c-12.288 0-24.576 10.24-24.576 24.576 0 12.288 10.24 24.576 24.576 24.576h106.496c12.288 0 24.576-10.24 24.576-24.576-2.048-14.336-12.288-24.576-24.576-24.576zM907.264 329.216h-106.496c-12.288 0-24.576 10.24-24.576 24.576 0 12.288 10.24 24.576 24.576 24.576h106.496c12.288 0 24.576-10.24 24.576-24.576s-12.288-24.576-24.576-24.576zM907.264 435.712h-106.496c-12.288 0-24.576 10.24-24.576 24.576 0 12.288 10.24 24.576 24.576 24.576h106.496c12.288 0 24.576-10.24 24.576-24.576s-12.288-24.576-24.576-24.576zM907.264 542.208h-106.496c-12.288 0-24.576 10.24-24.576 24.576 0 12.288 10.24 24.576 24.576 24.576h106.496c12.288 0 24.576-10.24 24.576-24.576s-12.288-24.576-24.576-24.576z" />
<glyph unicode="&#xe90f;" glyph-name="facebook" d="M761.856 949.76h-131.072c-145.408 0-241.664-96.256-241.664-247.808v-114.688h-131.072c-12.288 0-20.48-8.192-20.48-20.48v-165.888c0-12.288 8.192-20.48 20.48-20.48h131.072v-415.744c0-12.288 8.192-20.48 20.48-20.48h169.984c12.288 0 20.48 8.192 20.48 20.48v417.792h153.6c12.288 0 20.48 8.192 20.48 20.48v165.888c0 6.144-2.048 10.24-6.144 14.336s-8.192 6.144-14.336 6.144h-153.6v96.256c0 47.104 10.24 69.632 71.68 69.632h88.064c12.288 0 20.48 8.192 20.48 20.48v153.6c2.048 10.24-6.144 20.48-18.432 20.48z" />
<glyph unicode="&#xe910;" glyph-name="fee-calculator" d="M782.336-53.76h-540.672c-126.976 0-231.424 104.448-231.424 231.424v540.672c0 126.976 104.448 231.424 231.424 231.424h540.672c126.976 0 231.424-104.448 231.424-231.424v-540.672c0-126.976-104.448-231.424-231.424-231.424zM241.664 867.84c-81.92 0-149.504-67.584-149.504-149.504v-540.672c0-81.92 67.584-149.504 149.504-149.504h540.672c81.92 0 149.504 67.584 149.504 149.504v540.672c0 81.92-67.584 149.504-149.504 149.504h-540.672zM966.656 400.896h-909.312c-22.528 0-40.96 18.432-40.96 40.96s18.432 40.96 40.96 40.96h911.36c22.528 0 40.96-18.432 40.96-40.96s-20.48-40.96-43.008-40.96zM505.856-47.616c-22.528 0-40.96 18.432-40.96 40.96v909.312c0 22.528 18.432 40.96 40.96 40.96s40.96-18.432 40.96-40.96v-911.36c0-20.48-18.432-38.912-40.96-38.912zM280.576 521.728c-22.528 0-40.96 18.432-40.96 40.96v182.272c0 22.528 18.432 40.96 40.96 40.96s40.96-18.432 40.96-40.96v-182.272c0-22.528-18.432-40.96-40.96-40.96zM374.784 617.984h-182.272c-22.528 0-40.96 18.432-40.96 40.96s18.432 40.96 40.96 40.96h182.272c22.528 0 40.96-18.432 40.96-40.96s-18.432-40.96-40.96-40.96zM808.96 617.984h-151.552c-22.528 0-40.96 18.432-40.96 40.96s18.432 40.96 40.96 40.96h151.552c22.528 0 40.96-18.432 40.96-40.96s-16.384-40.96-40.96-40.96zM808.96 228.864h-151.552c-22.528 0-40.96 18.432-40.96 40.96s18.432 40.96 40.96 40.96h151.552c22.528 0 40.96-18.432 40.96-40.96s-16.384-40.96-40.96-40.96zM808.96 105.984h-151.552c-22.528 0-40.96 18.432-40.96 40.96s18.432 40.96 40.96 40.96h151.552c22.528 0 40.96-18.432 40.96-40.96s-16.384-40.96-40.96-40.96zM206.848 97.792c-10.24 0-20.48 4.096-28.672 12.288-16.384 16.384-16.384 40.96 0 57.344l155.648 155.648c16.384 16.384 40.96 16.384 57.344 0s16.384-40.96 0-57.344l-155.648-155.648c-6.144-8.192-18.432-12.288-28.672-12.288zM364.544 97.792c-10.24 0-20.48 4.096-28.672 12.288l-155.648 155.648c-16.384 16.384-16.384 40.96 0 57.344s40.96 16.384 57.344 0l155.648-155.648c16.384-16.384 16.384-40.96 0-57.344-8.192-8.192-18.432-12.288-28.672-12.288z" />
<glyph unicode="&#xe911;" glyph-name="flash" d="M927.744 749.056c-249.856 0-274.432-217.088-274.432-217.088h108.544v-165.888h-200.704c-149.504-483.328-464.896-415.744-464.896-415.744v206.848c0 0 208.896-49.152 325.632 333.824 147.456 507.904 505.856 456.704 505.856 456.704v-198.656z" />
<glyph unicode="&#xe912;" glyph-name="happiness-center" d="M512 949.76c-276.48 0-501.76-225.28-501.76-501.76s225.28-501.76 501.76-501.76 501.76 225.28 501.76 501.76-225.28 501.76-501.76 501.76zM655.36 677.376c38.912 0 71.68-32.768 71.68-71.68s-32.768-71.68-71.68-71.68-71.68 32.768-71.68 71.68 32.768 71.68 71.68 71.68zM354.304 677.376c38.912 0 71.68-32.768 71.68-71.68s-32.768-71.68-71.68-71.68-71.68 32.768-71.68 71.68 32.768 71.68 71.68 71.68zM512 75.264c-190.464 0-344.064 153.6-344.064 344.064 0 24.576 18.432 43.008 43.008 43.008s43.008-18.432 43.008-43.008c0-141.312 116.736-258.048 258.048-258.048s258.048 116.736 258.048 258.048c0 24.576 18.432 43.008 43.008 43.008s43.008-18.432 43.008-43.008c0-190.464-153.6-344.064-344.064-344.064z" />
<glyph unicode="&#xe913;" glyph-name="hearing" d="M489.472-41.472c-135.168 0-229.376 83.968-229.376 202.752 0 22.528 18.432 38.912 38.912 38.912s38.912-18.432 38.912-38.912c0-90.112 79.872-122.88 149.504-122.88 81.92 0 149.504 65.536 149.504 147.456-2.048 30.72-8.192 161.792 67.584 204.8 110.592 63.488 106.496 176.128 106.496 180.224v2.048c0 161.792-133.12 294.912-294.912 294.912-159.744 2.048-290.816-129.024-290.816-292.864 0-22.528-18.432-38.912-38.912-38.912s-38.912 18.432-38.912 38.912c0 206.848 167.936 374.784 374.784 374.784s372.736-167.936 374.784-372.736c0-18.432 2.048-167.936-145.408-253.952-24.576-14.336-32.768-86.016-28.672-131.072v-4.096c-4.096-124.928-106.496-229.376-233.472-229.376zM415.744 204.288c-22.528 0-38.912 18.432-38.912 38.912s18.432 38.912 38.912 38.912c28.672 0 69.632 49.152 69.632 81.92 0 34.816-43.008 53.248-65.536 57.344-40.96 8.192-86.016 8.192-86.016 8.192h-38.912v126.976c0 124.928 100.352 225.28 225.28 225.28s225.28-100.352 225.28-225.28c0-22.528-18.432-38.912-38.912-38.912-22.528 0-38.912 18.432-38.912 38.912 0 79.872-65.536 145.408-145.408 145.408s-145.408-65.536-145.408-145.408v-47.104c18.432-2.048 40.96-4.096 63.488-8.192 63.488-14.336 126.976-61.44 126.976-135.168-4.096-71.68-73.728-161.792-151.552-161.792zM122.88-53.76c-8.192 0-18.432 2.048-24.576 10.24-16.384 14.336-18.432 38.912-4.096 55.296l778.24 923.648c14.336 16.384 38.912 18.432 55.296 4.096s18.432-38.912 4.096-55.296l-778.24-923.648c-8.192-10.24-20.48-14.336-30.72-14.336z" />
<glyph unicode="&#xe914;" glyph-name="home" d="M968.704 617.984l-393.216 311.296c-34.816 26.624-86.016 26.624-118.784 0l-393.216-311.296c-22.528-18.432-34.816-43.008-34.816-71.68v-499.712c0-53.248 43.008-100.352 94.208-100.352h800.768c67.584 0 67.584 69.632 67.584 100.352v499.712c4.096 10.24 10.24 47.104-22.528 71.68zM391.168 13.824v348.16h239.616v-348.16h-239.616zM925.696 558.592c0-4.096-2.048-8.192-2.048-12.288v-499.712c0-18.432-2.048-28.672-2.048-32.768h-225.28v380.928c0 18.432-14.336 32.768-32.768 32.768h-307.2c-18.432 0-32.768-14.336-32.768-32.768v-380.928h-198.656c-14.336 0-28.672 16.384-28.672 32.768v497.664c0 8.192 4.096 14.336 10.24 20.48l393.216 311.296c4.096 4.096 10.24 6.144 16.384 6.144s12.288-2.048 16.384-6.144l393.216-309.248c2.048-2.048 2.048-6.144 0-8.192z" />
<glyph unicode="&#xe915;" glyph-name="info" d="M512 949.76c-276.48 0-501.76-225.28-501.76-501.76s225.28-501.76 501.76-501.76 501.76 225.28 501.76 501.76-225.28 501.76-501.76 501.76zM516.096 749.056c38.912 0 69.632-30.72 69.632-69.632s-30.72-69.632-69.632-69.632-69.632 30.72-69.632 69.632c-2.048 38.912 30.72 69.632 69.632 69.632zM614.4 146.944h-204.8c-22.528 0-43.008 18.432-43.008 43.008 0 22.528 18.432 43.008 43.008 43.008h67.584v245.76h-67.584c-22.528 0-43.008 18.432-43.008 43.008 0 22.528 18.432 43.008 43.008 43.008h151.552v-329.728h53.248c22.528 0 43.008-18.432 43.008-43.008-2.048-26.624-20.48-45.056-43.008-45.056z" />
<glyph unicode="&#xe916;" glyph-name="instagram" d="M700.416 949.76h-376.832c-172.032 0-313.344-141.312-313.344-313.344v-376.832c0-174.080 141.312-313.344 313.344-313.344h376.832c174.080 0 313.344 141.312 313.344 313.344v376.832c0 172.032-141.312 313.344-313.344 313.344zM919.552 259.584c0-120.832-98.304-219.136-219.136-219.136h-376.832c-120.832 0-219.136 98.304-219.136 219.136v376.832c0 120.832 98.304 219.136 219.136 219.136h376.832c120.832 0 219.136-98.304 219.136-219.136v-376.832zM512 697.856c-139.264 0-251.904-112.64-251.904-251.904s112.64-249.856 251.904-249.856 251.904 112.64 251.904 251.904-112.64 249.856-251.904 249.856zM512 290.304c-86.016 0-157.696 69.632-157.696 157.696 0 86.016 69.632 157.696 157.696 157.696s157.696-69.632 157.696-157.696c0-86.016-71.68-157.696-157.696-157.696zM815.104 718.336c0-18.097-14.671-32.768-32.768-32.768s-32.768 14.671-32.768 32.768c0 18.097 14.671 32.768 32.768 32.768s32.768-14.671 32.768-32.768z" />
<glyph unicode="&#xe917;" glyph-name="language" d="M927.744 726.528l-14.336-4.096-79.872-6.144-22.528-36.864-16.384 6.144-63.488 57.344-10.24 30.72-12.288 32.768-40.96 36.864-47.104 10.24-2.048-22.528 47.104-45.056 22.528-26.624-24.576-12.288-20.48 6.144-30.72 12.288 2.048 20.48-40.96 16.384-14.336-59.392-40.96-10.24 4.096-32.768 53.248-10.24 10.24 53.248 45.056-6.144 20.48-12.288h32.768l22.528-45.056 59.392-61.44-4.096-22.528-49.152 6.144-83.968-43.008-59.392-69.632-8.192-32.768h-20.48l-40.96 18.432-38.912-18.432 10.24-40.96 16.384 20.48h30.72l-2.048-36.864 24.576-8.192 24.576-28.672 40.96 12.288 45.056-8.192 53.248-14.336 26.624-4.096 45.056-51.2 88.064-51.2-57.344-104.448-59.392-28.672-22.528-61.44-86.016-57.344-8.192-32.768c219.136 53.248 382.976 251.904 382.976 487.424 0 102.4-30.72 198.656-86.016 278.528zM569.344 185.856l-36.864 67.584 32.768 69.632-32.768 10.24-36.864 36.864-83.968 18.432-26.624 59.392v-34.816h-12.288l-71.68 98.304v79.872l-53.248 86.016-83.968-16.384h-57.344l-28.672 18.432 36.864 28.672-36.864-8.192c-43.008-73.728-67.584-159.744-67.584-251.904 0-276.48 225.28-501.76 501.76-501.76 20.48 0 43.008 2.048 63.488 4.096l-6.144 61.44c0 0 22.528 90.112 22.528 94.208 0 2.048-22.528 79.872-22.528 79.872zM196.608 787.968l90.112 12.288 40.96 22.528 47.104-14.336 73.728 4.096 24.576 38.912 36.864-6.144 90.112 8.192 24.576 26.624 34.816 22.528 47.104-4.096 18.432 2.048c-63.488 30.72-137.216 49.152-212.992 49.152-155.648 0-294.912-71.68-387.072-182.272v0l71.68 20.48zM532.48 900.608l51.2 28.672 32.768-18.432-47.104-36.864-45.056-4.096-20.48 12.288 28.672 18.432zM380.928 896.512l22.528-10.24 28.672 10.24 18.432-28.672-67.584-18.432-34.816 20.48c0 0 32.768 20.48 32.768 26.624z" />
<glyph unicode="&#xe918;" glyph-name="lawyer-registre" d="M325.632 421.376c-112.64 0-202.752 92.16-202.752 202.752s92.16 202.752 202.752 202.752c47.104 0 92.16-16.384 129.024-45.056 12.288-10.24 14.336-30.72 4.096-43.008s-30.72-14.336-43.008-4.096c-24.576 20.48-57.344 32.768-90.112 32.768-77.824 0-141.312-63.488-141.312-141.312s63.488-141.312 141.312-141.312c16.384 0 30.72-14.336 30.72-30.72s-12.288-32.768-30.72-32.768zM645.12 69.12h-634.88l79.872 245.76c24.576 83.968 65.536 129.024 131.072 147.456 6.144 2.048 10.24 2.048 16.384 4.096 16.384 4.096 32.768-6.144 36.864-22.528s-6.144-32.768-22.528-36.864c-4.096 0-8.192-2.048-12.288-2.048-38.912-10.24-67.584-32.768-90.112-108.544l-55.296-167.936h462.848l-55.296 141.312c-6.144 16.384 2.048 32.768 16.384 38.912 16.384 6.144 32.768-2.048 38.912-16.384l88.064-223.232zM194.56 585.216c-20.48 0-34.816 2.048-36.864 2.048-16.384 4.096-26.624 18.432-24.576 34.816 4.096 16.384 18.432 26.624 34.816 24.576 6.144-2.048 145.408-22.528 237.568 124.928 8.192 14.336 28.672 18.432 43.008 10.24s18.432-28.672 10.24-43.008c-86.016-135.168-204.8-153.6-264.192-153.6zM325.632 220.672c-12.288 0-22.528 8.192-28.672 18.432l-81.92 192.512c-6.144 16.384 0 32.768 16.384 40.96 16.384 6.144 32.768 0 40.96-16.384l51.2-120.832 14.336 38.912c6.144 16.384 22.528 24.576 38.912 18.432s24.576-22.528 18.432-38.912l-40.96-112.64c-4.096-12.288-14.336-20.48-28.672-20.48 2.048 0 2.048 0 0 0zM784.384 474.624c2.048-61.44 53.248-112.64 114.688-112.64s112.64 49.152 114.688 112.64h-229.376zM417.792 474.624c2.048-61.44 53.248-112.64 114.688-112.64s112.64 49.152 114.688 112.64h-229.376zM712.704 69.12c-16.384 0-30.72 14.336-30.72 30.72v669.696c0 16.384 14.336 30.72 30.72 30.72s30.72-14.336 30.72-30.72v-669.696c0-18.432-14.336-30.72-30.72-30.72zM983.040 433.664c-12.288 0-24.576 8.192-28.672 20.48l-59.392 182.272h-374.784c-16.384 0-30.72 14.336-30.72 30.72s14.336 30.72 30.72 30.72h417.792l73.728-223.232c6.144-16.384-4.096-32.768-20.48-38.912-2.048-2.048-6.144-2.048-8.192-2.048zM894.976 69.12h-182.272c-16.384 0-30.72 14.336-30.72 30.72s14.336 30.72 30.72 30.72h182.272c16.384 0 30.72-14.336 30.72-30.72s-14.336-30.72-30.72-30.72zM815.104 433.664c-4.096 0-6.144 0-10.24 2.048-16.384 6.144-24.576 22.528-18.432 38.912l71.68 192.512c6.144 16.384 22.528 24.576 38.912 18.432s24.576-22.528 18.432-38.912l-71.68-192.512c-6.144-12.288-16.384-20.48-28.672-20.48zM620.544 433.664c-12.288 0-24.576 8.192-28.672 20.48l-71.68 192.512c-6.144 16.384 2.048 32.768 18.432 38.912s32.768-2.048 38.912-18.432l71.68-192.512c6.144-16.384-2.048-32.768-18.432-38.912-2.048 0-6.144-2.048-10.24-2.048zM448.512 433.664c-4.096 0-6.144 0-10.24 2.048-16.384 6.144-24.576 22.528-18.432 38.912l71.68 192.512c6.144 16.384 22.528 24.576 38.912 18.432s24.576-22.528 18.432-38.912l-71.68-192.512c-4.096-12.288-16.384-20.48-28.672-20.48z" />
<glyph unicode="&#xe919;" glyph-name="legislation" d="M395.264 468.48c0-106.496-86.016-192.512-192.512-192.512s-192.512 88.064-192.512 192.512h385.024zM1013.76 468.48c0-106.496-86.016-192.512-192.512-192.512s-192.512 86.016-192.512 192.512c0 0 385.024 0 385.024 0zM512 62.976c-18.432 0-32.768 14.336-32.768 32.768v704.512c0 18.432 14.336 32.768 32.768 32.768s32.768-14.336 32.768-32.768v-704.512c0-18.432-14.336-32.768-32.768-32.768zM704.512 62.976h-395.264c-18.432 0-32.768 14.336-32.768 32.768s14.336 32.768 32.768 32.768h395.264c18.432 0 32.768-14.336 32.768-32.768-2.048-18.432-16.384-32.768-32.768-32.768zM970.752 415.232c-10.24 0-20.48 6.144-26.624 16.384l-139.264 229.376h-583.68l-141.312-229.376c-8.192-14.336-28.672-20.48-43.008-10.24-14.336 8.192-20.48 28.672-10.24 43.008l157.696 262.144h655.36l159.744-260.096c8.192-14.336 4.096-34.816-10.24-43.008-6.144-6.144-12.288-8.192-18.432-8.192zM352.256 415.232c-10.24 0-20.48 6.144-26.624 16.384l-149.504 245.76c-8.192 14.336-4.096 34.816 10.24 43.008 14.336 10.24 34.816 4.096 43.008-10.24l149.504-245.76c8.192-14.336 4.096-34.816-10.24-43.008-6.144-4.096-10.24-6.144-16.384-6.144zM671.744 415.232c-6.144 0-12.288 2.048-16.384 4.096-14.336 8.192-20.48 28.672-10.24 43.008l149.504 245.76c8.192 14.336 28.672 20.48 43.008 10.24 14.336-8.192 20.48-28.672 10.24-43.008l-149.504-245.76c-4.096-8.192-16.384-14.336-26.624-14.336z" />
<glyph unicode="&#xe91a;" glyph-name="login" d="M505.856 378.368c-157.696 0-284.672 126.976-284.672 284.672s126.976 284.672 284.672 284.672c157.696 0 284.672-126.976 284.672-284.672 0-155.648-126.976-284.672-284.672-284.672zM505.856 865.792c-110.592 0-200.704-90.112-200.704-200.704s90.112-200.704 200.704-200.704c110.592 0 200.704 90.112 200.704 200.704s-90.112 200.704-200.704 200.704zM937.984-53.76c-22.528 0-43.008 18.432-43.008 43.008 0 239.616-147.456 389.12-382.976 389.12s-382.976-149.504-382.976-389.12c0-22.528-18.432-43.008-43.008-43.008s-43.008 18.432-43.008 43.008c0 288.768 184.32 473.088 466.944 473.088 284.672 0 466.944-186.368 466.944-473.088 2.048-24.576-16.384-43.008-38.912-43.008z" />
<glyph unicode="&#xe91b;" glyph-name="newsletter" d="M890.88 597.504c-4.096 2.048-16.384 10.24-34.816 20.48v215.040c0 65.536-53.248 116.736-116.736 116.736h-460.8c-65.536 0-116.736-53.248-116.736-116.736v-219.136c-12.288-8.192-22.528-14.336-28.672-16.384-47.104-24.576-77.824-34.816-77.824-77.824v-493.568c0-43.008 34.816-77.824 77.824-77.824h755.712c43.008 0 77.824 34.816 77.824 77.824v491.52c2.048 43.008-47.104 67.584-75.776 79.872zM845.824 208.384h-675.84c-30.72 0-55.296 24.576-55.296 55.296s24.576 55.296 55.296 55.296h18.432c4.096-2.048 8.192-2.048 14.336-2.048 22.528 0 40.96 18.432 40.96 40.96v475.136c0 20.48 16.384 36.864 36.864 36.864h458.752c20.48 0 36.864-16.384 36.864-36.864v-473.088c0-22.528 18.432-40.96 40.96-40.96 4.096 0 8.192 0 14.336 2.048h18.432c30.72 0 55.296-24.576 55.296-55.296-2.048-30.72-26.624-57.344-59.392-57.344zM665.6 720.384h-313.344c-22.528 0-40.96-18.432-40.96-40.96s18.432-40.96 40.96-40.96h313.344c22.528 0 40.96 18.432 40.96 40.96s-18.432 40.96-40.96 40.96zM665.6 574.976h-313.344c-22.528 0-40.96-18.432-40.96-40.96s18.432-40.96 40.96-40.96h313.344c22.528 0 40.96 18.432 40.96 40.96s-18.432 40.96-40.96 40.96zM489.472 423.424h-137.216c-22.528 0-40.96-18.432-40.96-40.96s18.432-40.96 40.96-40.96h137.216c22.528 0 40.96 18.432 40.96 40.96s-18.432 40.96-40.96 40.96z" />
<glyph unicode="&#xe91c;" glyph-name="notification" d="M512-53.76c-45.056 0-86.016 18.432-116.736 49.152-20.48 20.48-34.816 47.104-43.008 75.776h-258.048c-18.432 0-36.864 14.336-40.96 32.768-2.048 18.432 8.192 36.864 24.576 45.056 96.256 43.008 102.4 237.568 102.4 241.664v135.168c0 65.536 20.48 129.024 57.344 182.272 34.816 51.2 81.92 90.112 139.264 114.688 4.096 69.632 63.488 124.928 137.216 124.928 71.68 0 131.072-55.296 137.216-124.928 55.296-24.576 104.448-65.536 139.264-114.688 36.864-53.248 57.344-116.736 57.344-182.272v-135.168c0-4.096 4.096-198.656 102.4-241.664 18.432-8.192 26.624-26.624 22.528-45.056s-20.48-32.768-40.96-32.768h-260.096c-8.192-28.672-22.528-55.296-43.008-75.776-30.72-30.72-71.68-49.152-116.736-49.152zM438.272 71.168c14.336-26.624 43.008-45.056 73.728-45.056s57.344 18.432 73.728 45.056h-147.456zM825.344 153.088c-12.288 20.48-24.576 43.008-32.768 67.584h-561.152c-10.24-26.624-20.48-49.152-32.768-67.584h626.688zM772.096 302.592c-8.192 47.104-8.192 83.968-8.192 88.064v135.168c0 135.168-112.64 245.76-249.856 245.76s-249.856-110.592-249.856-245.76v-135.168c0-4.096 0-40.96-8.192-88.064h516.096zM512 853.504c14.336 0 26.624 0 40.96-2.048-10.24 12.288-24.576 18.432-40.96 18.432s-30.72-6.144-40.96-18.432c14.336 0 26.624 2.048 40.96 2.048z" />
<glyph unicode="&#xe91d;" glyph-name="office" d="M636.928 949.76l-563.2-219.136v-595.968l188.416 61.44v501.76l374.784 63.488v-692.224l-563.2 65.536 563.2-188.416 313.344 94.208v815.104z" />
<glyph unicode="&#xe91e;" glyph-name="play" d="M935.936 347.648l-743.424-389.12c-16.384-8.192-34.816-12.288-53.248-12.288-20.48 0-40.96 6.144-59.392 16.384-34.816 20.48-55.296 57.344-55.296 98.304v774.144c0 38.912 20.48 77.824 55.296 98.304s75.776 22.528 112.64 4.096l743.424-387.072c36.864-20.48 61.44-59.392 61.44-100.352 0-43.008-22.528-81.92-61.44-102.4z" />
<glyph unicode="&#xe91f;" glyph-name="poll" d="M972.8 835.072c-10.24-4.096-22.528-8.192-32.768-12.288-174.080-65.536-311.296-169.984-419.84-305.152-10.24-12.288-18.432-24.576-28.672-36.864-6.144 4.096-10.24 8.192-16.384 12.288-28.672 20.48-55.296 43.008-86.016 63.488-24.576 16.384-53.248 14.336-73.728-4.096-18.432-16.384-18.432-40.96 0-63.488 12.288-14.336 24.576-28.672 38.912-43.008 36.864-36.864 73.728-122.88 112.64-159.744 28.672-26.624 57.344-24.576 90.112 4.096 6.144 6.144 12.288 14.336 18.432 22.528 14.336 20.48 28.672 88.064 43.008 108.544 92.16 137.216 217.088 247.808 354.304 346.112 14.336 10.24 26.624 24.576 40.96 34.816v32.768h-40.96zM917.504 593.408c0 4.096-94.208-77.824-96.256-88.064-2.048-55.296 2.048-290.816 0-346.112 0-6.144 4.096 0 4.096-43.008-198.656 0-505.856 2.048-704.512 2.048v661.504c8.192 0 24.576 2.048 30.72 2.048 129.024 0 258.048 0 387.072 0 10.24 0 208.896 90.112 217.088 96.256-10.24 0-18.432 2.048-24.576 2.048-178.176 0-301.056 2.048-479.232 2.048-57.344 0-116.736-2.048-174.080-6.144-34.816-2.048-51.2-18.432-57.344-47.104-4.096-20.48-10.24-28.672-10.24-49.152-2.048-188.416 0-434.176 0-620.544 0-28.672 2.048-55.296 6.144-83.968 4.096-30.72 24.576-49.152 55.296-53.248 12.288-2.048 24.576-4.096 34.816-4.096 202.752-2.048 405.504-2.048 608.256-2.048 57.344 0 67.584-2.048 124.928 0 40.96 2.048 67.584-6.144 71.68 28.672 2.048 14.336 6.144 53.248 6.144 67.584 0 139.264 2.048 342.016 0 481.28z" />
<glyph unicode="&#xe920;" glyph-name="rss" d="M147.456 220.672c-38.912 0-69.632-12.288-96.256-38.912s-38.912-59.392-38.912-96.256c0-38.912 12.288-69.632 38.912-96.256s59.392-38.912 96.256-38.912c38.912 0 69.632 12.288 96.256 38.912s38.912 59.392 38.912 96.256c0 38.912-12.288 69.632-38.912 96.256-26.624 24.576-59.392 38.912-96.256 38.912zM462.848 398.848c-53.248 53.248-114.688 96.256-184.32 129.024s-141.312 51.2-217.088 57.344h-6.144c-12.288 0-22.528-4.096-30.72-12.288-10.24-8.192-14.336-20.48-14.336-32.768v-96.256c0-12.288 4.096-22.528 12.288-30.72s18.432-12.288 28.672-14.336c108.544-10.24 202.752-55.296 278.528-131.072 77.824-77.824 120.832-169.984 131.072-278.528 0-12.288 6.144-22.528 14.336-28.672 8.192-8.192 18.432-12.288 30.72-12.288h96.256c14.336 0 24.576 4.096 32.768 14.336s12.288 20.48 12.288 34.816c-6.144 75.776-24.576 149.504-57.344 217.088-30.72 67.584-73.728 129.024-126.976 184.32zM927.744 351.744c-51.2 114.688-120.832 215.040-208.896 303.104s-190.464 157.696-303.104 208.896c-114.688 51.2-233.472 79.872-358.4 86.016h-2.048c-12.288 0-22.528-4.096-30.72-12.288-10.24-8.192-14.336-20.48-14.336-32.768v-102.4c0-12.288 4.096-22.528 12.288-30.72s18.432-14.336 30.72-14.336c102.4-6.144 198.656-30.72 290.816-71.68 92.16-43.008 172.032-96.256 239.616-165.888 67.584-67.584 122.88-147.456 165.888-239.616s65.536-188.416 71.68-290.816c0-12.288 4.096-22.528 14.336-30.72 8.192-8.192 18.432-12.288 30.72-12.288h102.4c12.288 0 24.576 4.096 32.768 14.336 10.24 10.24 14.336 20.48 12.288 32.768-6.144 124.928-34.816 243.712-86.016 358.4z" />
<glyph unicode="&#xe921;" glyph-name="settings" d="M514.048 218.624c-126.976 0-231.424 104.448-231.424 231.424s104.448 231.424 231.424 231.424 231.424-104.448 231.424-231.424-104.448-231.424-231.424-231.424zM514.048 595.456c-79.872 0-145.408-65.536-145.408-145.408s65.536-145.408 145.408-145.408 145.408 65.536 145.408 145.408-65.536 145.408-145.408 145.408zM552.96-53.76h-96.256c-40.96 0-69.632 38.912-71.68 73.728l-4.096 38.912c-22.528 8.192-45.056 18.432-67.584 28.672l-24.576-18.432c-28.672-26.624-73.728-24.576-100.352 2.048l-65.536 67.584c-14.336 14.336-20.48 32.768-20.48 53.248 0 18.432 8.192 34.816 18.432 47.104l20.48 26.624c-10.24 22.528-20.48 45.056-26.624 67.584l-28.672 4.096c-38.912 2.048-69.632 32.768-69.632 71.68v96.256c0 36.864 30.72 69.632 69.632 71.68l34.816 4.096c8.192 22.528 18.432 45.056 28.672 67.584l-16.384 24.576c-26.624 28.672-24.576 73.728 2.048 100.352l67.584 67.584c14.336 14.336 32.768 20.48 53.248 20.48 18.432 0 34.816-8.192 47.104-18.432l26.624-20.48c22.528 10.24 45.056 20.48 67.584 26.624l4.096 28.672c2.048 38.912 32.768 71.68 71.68 71.68h96.256c36.864 0 69.632-32.768 71.68-71.68l4.096-36.864c22.528-8.192 45.056-18.432 67.584-28.672l24.576 18.432c28.672 26.624 73.728 24.576 100.352 0l67.584-67.584c26.624-26.624 26.624-71.68 0-100.352l-20.48-28.672c10.24-22.528 20.48-45.056 26.624-67.584l28.672-4.096c38.912-2.048 69.632-32.768 69.632-71.68v-96.256c0-38.912-30.72-69.632-67.584-71.68l-32.768-4.096c-8.192-22.528-18.432-45.056-28.672-67.584l18.432-24.576c26.624-28.672 26.624-73.728 0-100.352l-73.728-67.584c-26.624-26.624-71.68-26.624-100.352-2.048l-26.624 20.48c-22.528-12.288-45.056-20.48-67.584-26.624l-4.096-30.72c-4.096-34.816-32.768-73.728-73.728-73.728zM471.040 30.208h69.632l12.288 90.112 28.672 6.144c32.768 6.144 65.536 20.48 98.304 38.912l24.576 14.336 69.632-51.2 51.2 51.2-51.2 67.584 16.384 24.576c18.432 30.72 32.768 61.44 43.008 96.256l6.144 26.624 81.92 12.288v71.68l-81.92 10.24-6.144 28.672c-8.192 34.816-20.48 67.584-36.864 98.304l-14.336 24.576 53.248 69.632-51.2 51.2-67.584-51.2-24.576 16.384c-30.72 18.432-61.44 32.768-96.256 43.008l-28.672 6.144-12.288 90.112h-69.632l-12.288-86.016-28.672-6.144c-32.768-6.144-65.536-20.48-98.304-38.912l-24.576-14.336-69.632 53.248-51.2-51.2 51.2-67.584-16.384-24.576c-18.432-30.72-32.768-61.44-43.008-96.256l-6.144-26.624-83.968-14.336v-71.68l83.968-12.288 6.144-28.672c8.192-34.816 20.48-67.584 38.912-98.304l14.336-24.576-53.248-69.632 51.2-51.2 67.584 51.2 24.576-16.384c30.72-18.432 61.44-32.768 96.256-43.008l28.672-8.192 10.24-90.112zM933.888 476.672v0 0z" />
<glyph unicode="&#xe922;" glyph-name="toll-free" d="M253.952 226.816c-120.832 0-217.088 98.304-217.088 217.088s96.256 217.088 217.088 217.088c-6.144 0-6.144-434.176 0-434.176zM770.048 660.992c118.784 0 217.088-96.256 217.088-217.088s-96.256-217.088-217.088-217.088c6.144 0 6.144 434.176 0 434.176zM880.64 507.392c-20.48 0-38.912 16.384-38.912 38.912 0 182.272-147.456 329.728-329.728 329.728s-325.632-149.504-325.632-331.776c0-20.48-16.384-38.912-38.912-38.912s-38.912 16.384-38.912 38.912c0 223.232 182.272 405.504 405.504 405.504s405.504-182.272 405.504-405.504c0-20.48-16.384-36.864-38.912-36.864zM514.048-27.136c-20.48 0-38.912 16.384-38.912 38.912s16.384 38.912 38.912 38.912c182.272 0 329.728 147.456 329.728 329.728 0 20.48 16.384 38.912 38.912 38.912s38.912-16.384 38.912-38.912c-2.048-225.28-184.32-407.552-407.552-407.552zM589.824 11.776c0-36.195-29.341-65.536-65.536-65.536s-65.536 29.341-65.536 65.536c0 36.195 29.341 65.536 65.536 65.536s65.536-29.341 65.536-65.536z" />
<glyph unicode="&#xe923;" glyph-name="translator-register" d="M266.24 413.184c-112.64 0-204.8 92.16-204.8 204.8s92.16 204.8 204.8 204.8c47.104 0 92.16-16.384 129.024-45.056 12.288-10.24 14.336-28.672 4.096-43.008-10.24-12.288-28.672-14.336-43.008-4.096-26.624 20.48-57.344 30.72-90.112 30.72-79.872 0-145.408-65.536-145.408-145.408s65.536-145.408 145.408-145.408c16.384 0 30.72-14.336 30.72-30.72 0-14.336-14.336-26.624-30.72-26.624zM380.928 71.168h-370.688v217.088c0 102.4 81.92 184.32 184.32 184.32h77.824c16.384 0 30.72-14.336 30.72-30.72s-14.336-30.72-30.72-30.72h-77.824c-67.584 0-122.88-55.296-122.88-122.88v-157.696h311.296c16.384 0 30.72-14.336 30.72-30.72s-16.384-28.672-32.768-28.672zM270.336 243.2c-16.384 0-30.72 14.336-30.72 30.72v169.984c0 16.384 14.336 30.72 30.72 30.72s30.72-14.336 30.72-30.72v-169.984c0-18.432-12.288-30.72-30.72-30.72zM180.224 261.632h-40.96c-16.384 0-30.72 14.336-30.72 30.72s14.336 30.72 30.72 30.72h40.96c16.384 0 30.72-14.336 30.72-30.72s-14.336-30.72-30.72-30.72zM516.096 495.104h67.584c2.048 47.104 10.24 94.208 24.576 129.024-49.152-24.576-86.016-71.68-92.16-129.024zM681.984 304.64c12.288 0 40.96 49.152 47.104 139.264h-94.208c6.144-92.16 34.816-139.264 47.104-139.264zM516.096 441.856c10.24-53.248 45.056-98.304 92.16-120.832-14.336 34.816-22.528 75.776-24.576 120.832h-67.584zM681.984 804.352c-182.272 0-331.776-147.456-331.776-331.776 0-83.968 32.768-161.792 83.968-221.184 4.096-4.096 6.144-8.192 10.24-10.24l-20.48-102.4 86.016 51.2c49.152-30.72 108.544-47.104 169.984-47.104 182.272 0 331.776 147.456 331.776 331.776s-145.408 329.728-329.728 329.728zM903.168 468.48c0 0 0 0 0 0-4.096-120.832-100.352-217.088-221.184-217.088s-221.184 98.304-221.184 221.184 100.352 221.184 221.184 221.184 221.184-98.304 221.184-221.184c0 0 0-2.048 0-4.096 0 0 0 0 0 0zM681.984 642.56c-12.288 0-43.008-51.2-47.104-147.456h94.208c-4.096 96.256-32.768 147.456-47.104 147.456zM757.76 624.128c14.336-36.864 22.528-81.92 24.576-129.024h67.584c-8.192 57.344-43.008 104.448-92.16 129.024zM757.76 321.024c47.104 22.528 81.92 67.584 92.16 120.832h-67.584c-4.096-43.008-12.288-86.016-24.576-120.832z" />
<glyph unicode="&#xe924;" glyph-name="twitter" d="M385.024 36.352c-43.008 0-88.064 4.096-133.12 10.24-79.872 12.288-159.744 53.248-182.272 65.536l-59.392 32.768 63.488 20.48c69.632 22.528 112.64 36.864 165.888 59.392-53.248 26.624-94.208 71.68-112.64 131.072l-14.336 45.056 12.288-2.048c-12.288 12.288-20.48 24.576-28.672 34.816-24.576 38.912-38.912 86.016-36.864 124.928l2.048 38.912 24.576-8.192c-8.192 22.528-16.384 43.008-20.48 65.536-10.24 51.2-2.048 106.496 24.576 153.6l20.48 38.912 28.672-32.768c88.064-104.448 198.656-167.936 329.728-186.368-6.144 36.864-2.048 73.728 12.288 104.448 16.384 36.864 43.008 69.632 79.872 92.16 40.96 24.576 90.112 36.864 139.264 34.816 51.2-4.096 98.304-22.528 137.216-57.344 18.432 4.096 32.768 10.24 49.152 16.384 10.24 4.096 22.528 8.192 38.912 14.336l57.344 20.48-36.864-106.496c2.048 0 4.096 0 8.192 0l61.44 2.048-36.864-49.152c-2.048-2.048-2.048-4.096-4.096-4.096-2.048-4.096-6.144-10.24-55.296-75.776-12.288-16.384-18.432-38.912-18.432-61.44 4.096-86.016-6.144-163.84-30.72-231.424-24.576-63.488-61.44-118.784-110.592-163.84-61.44-55.296-139.264-92.16-231.424-110.592-45.056-10.24-94.208-16.384-143.36-16.384z" />
<glyph unicode="&#xe925;" glyph-name="youtube" d="M974.848 740.864c-36.864 43.008-102.4 61.44-231.424 61.44h-462.848c-131.072-2.048-198.656-20.48-235.52-65.536-34.816-45.056-34.816-110.592-34.816-200.704v-174.080c0-176.128 40.96-266.24 270.336-266.24h462.848c110.592 0 172.032 16.384 210.944 53.248 40.96 38.912 57.344 102.4 57.344 212.992v174.080c2.048 94.208 0 161.792-36.864 204.8zM655.36 423.424l-210.944-110.592c-4.096-2.048-10.24-4.096-14.336-4.096-6.144 0-12.288 2.048-16.384 4.096-10.24 6.144-16.384 16.384-16.384 28.672v221.184c0 12.288 6.144 22.528 16.384 28.672s22.528 6.144 30.72 2.048l210.944-112.64c10.24-6.144 18.432-16.384 18.432-28.672-2.048-12.288-8.192-22.528-18.432-28.672z" />
<glyph unicode="&#xe926;" glyph-name="moj-user" d="M135.584 8.894c0 6.231 0 11.325 0 16.42 0 168.971-0.001 337.943 0.005 506.914 0 3.816-0.195 7.656 0.15 11.444 1.603 17.587 13.91 29.33 31.577 29.507 26.713 0.268 53.432 0.086 80.148 0.095 4.107 0.001 8.214 0 13.748 0 0 6.643-0.028 12.434 0.005 18.225 0.213 37.405-2.344 75.089 9.145 111.512 31.537 99.982 98.698 160.297 201.71 180.465 1.7 0.333 3.412 0.629 5.086 1.066 0.99 0.258 1.917 0.759 3.577 1.44 0 10.499-0.175 21.227 0.039 31.948 0.366 18.344 13.998 31.966 31.538 31.799 17.521-0.167 30.756-13.908 30.997-32.361 0.136-10.384 0.024-20.771 0.024-31.912 8.77-1.763 17.223-3.195 25.547-5.177 114.274-27.209 193.483-127.136 193.934-244.6 0.078-20.393 0.011-40.786 0.011-62.41 17.005 0 32.845 0.001 48.686 0 14.225-0.001 28.451 0.066 42.676-0.020 21.647-0.131 34.149-12.464 34.22-34.339 0.164-50.309 0.074-100.619 0.076-150.929 0.006-122.131 0.007-244.262 0.010-366.394 0-3.763 0-7.526 0-12.687 4.516 0 8.203 0 11.891 0 25.675 0 51.35 0.032 77.025-0.011 22.183-0.037 36.266-12.137 36.35-31.125 0.083-18.797-14.512-31.493-36.187-31.492-199.157 0.005-398.314 0.008-597.47 0.010-111.722 0.001-223.444-0.037-335.166 0.032-24.811 0.015-40.554 20.509-32.634 42.099 4.6 12.539 15.41 20.292 29.637 20.409 26.714 0.218 53.432 0.070 80.148 0.074 4.071 0.001 8.143 0 13.497 0zM199.357 510.286c0-167.73 0-334.298 0-500.803 209.046 0 417.065 0 625.575 0 0 167.217 0 333.844 0 500.803-208.878 0-416.974 0-625.575 0zM324.607 573.972c125.632 0 249.97 0 375.272 0 0 23.167 0.517 45.658-0.092 68.118-2.252 83.023-59.401 154.725-139.917 176.102-80.067 21.258-164.942-13.768-208.787-84.351-30.964-49.848-27.802-104.411-26.476-159.869zM323.995 260.237c-0.003 49.6-0.070 99.2 0.083 148.8 0.019 6.165 0.189 12.655 2.054 18.424 4.557 14.096 19.116 22.428 33.644 20.328 15.412-2.229 26.757-15.268 26.902-32.167 0.292-33.989 0.106-67.983 0.107-101.974 0.002-69.024 0.051-138.048-0.033-207.072-0.030-24.481-19.396-40.061-41.026-33.289-13.334 4.175-21.496 15.363-21.603 30.869-0.228 33.296-0.108 66.595-0.123 99.893-0.008 18.73-0.001 37.46-0.005 56.19zM543.321 260.101c0.003-50.99 0.032-101.98-0.012-152.97-0.018-21.050-12.578-35.312-31.061-35.484-18.423-0.172-31.541 14.283-31.546 35.056-0.026 101.98-0.006 203.96 0.033 305.94 0.008 21.228 12.4 35.241 31.081 35.358 18.714 0.117 31.47-13.951 31.488-34.93 0.043-50.99 0.014-101.98 0.016-152.97zM699.967 259.53c0-52.028 0.174-104.058-0.095-156.085-0.093-18.119-13.281-31.334-30.428-31.792-17.163-0.459-31.242 13.321-32.146 31.489-0.086 1.73-0.030 3.468-0.030 5.202-0.002 68.331-0.004 136.662-0.003 204.994 0.001 33.992-0.171 67.986 0.088 101.976 0.13 17.102 11.025 29.908 26.594 32.414 14.43 2.323 29.056-5.889 33.84-19.963 1.84-5.415 2.154-11.545 2.172-17.352 0.159-50.294 0.091-100.588 0.091-150.883-0.028 0-0.056 0-0.084 0z" />
<glyph unicode="&#xe927;" glyph-name="public-user" d="M769.287 171.202c-1.043 30.668-2.121 62.382-8.273 93.348-9.92 49.931-37.118 85.275-80.839 105.049-33.986 15.371-70.439 22.834-104.769 28.61-4.005 0.679-7.969-2.708-8.723-3.392-1.881-1.705-3.596-3.56-5.255-5.353-2.482-2.684-4.828-5.218-7.514-7.073-14.933-10.307-40.010-13.908-62.408-8.956-15.959 3.527-27.946 10.909-33.752 20.785-1.702 2.894-6.388 4.486-9.445 3.97-28.993-4.868-62.987-11.594-95.287-24.571-43.966-17.666-72.254-47.142-84.080-87.609-5.179-17.726-8.811-36.752-10.796-56.549-1.414-14.090-1.932-28.444-2.432-42.325-0.401-11.135-0.817-22.648-1.692-33.893-1.378-17.679 4.832-31.958 18.984-43.656 0.811-0.67 1.595-1.374 2.379-2.077 0.962-0.86 1.924-1.72 2.925-2.532 21.21-17.189 46.813-29.78 80.578-39.623 55.020-16.038 110.749-18.476 153.153-18.809h0.064c48.228 0.457 105.157 3.372 161.722 21.525 33.139 10.637 58.039 24.159 78.361 42.558 12.83 11.615 18.494 24.556 17.824 40.723-0.274 6.616-0.499 13.234-0.724 19.852zM721.903 149.168c0.006-1.284-1.154-3.503-2.584-4.947-16.414-16.566-37.712-24.954-56.38-30.975-30.587-9.864-65.057-15.468-108.481-17.64-9.61-0.483-19.472-0.351-29.010-0.229-4.46 0.059-8.921 0.117-13.379 0.117h-0.046c-39.468-0.497-91.275 0.759-141.852 15.001-23.801 6.703-42.044 15.053-57.414 26.275-8.438 6.162-11.546 12.225-11.086 21.626 0.306 6.246 0.557 12.494 0.808 18.739 1.094 27.187 2.224 55.297 8.102 82.424 7.149 32.997 25.725 55.393 56.787 68.47 23.12 9.732 47.12 15.238 67.546 19.341 0.762 0.161 2.659-0.391 4.048-1.351 44.084-30.465 101.496-30.38 146.268 0.219 1.372 0.937 2.887 1.304 3.28 1.234 5.504-1.479 11.028-2.905 16.553-4.333 15.866-4.098 32.273-8.336 47.874-13.803 35.739-12.524 56.306-39.092 62.877-81.222 4.83-30.971 5.928-61.954 6.089-98.945zM412.316 444.62c28.515-30.453 61.294-45.787 97.725-45.786 8.638 0 17.483 0.862 26.523 2.589 38.782 7.408 70.518 30.39 94.324 68.307 20.337 32.392 29.973 68.729 28.639 108.001 0.136 29.043-2.45 52.468-8.138 73.72-13.583 50.753-45.756 81.695-95.624 91.964-26.926 5.545-54.804 5.836-82.858 0.871-52.729-9.334-86.503-40.71-100.383-93.258-7.701-29.153-10.134-60.291-7.438-95.192 3.395-43.954 19.285-81.372 47.229-111.216zM611.947 578.618c1.007-40.96-10.235-73.847-34.366-100.54-19.109-21.138-43.42-32.34-68.445-31.518-25.356 0.824-49.265 13.831-67.326 36.627-16.838 21.252-26.536 45.882-28.827 73.207-2.547 30.39-0.681 57.45 5.704 82.725 8.176 32.36 27.617 51.144 59.432 57.426 11.506 2.272 22.961 3.407 34.301 3.407 12.397 0 24.657-1.358 36.676-4.072 30.2-6.821 48.921-25.566 55.643-55.717 3.092-13.867 4.87-28.363 6.589-42.382 0.632-5.151 1.282-10.444 1.994-15.701l-1.457-0.206 0.080-3.255zM708.732 594.779c21.906-25.652 51.388-40.56 83.015-41.978 1.646-0.074 3.284-0.111 4.924-0.111 29.562 0.001 57.979 11.955 80.489 33.976 30.69 30.025 45.757 68.16 46.006 116.499l2.073 0.394-0.501 3.464c-0.879 6.071-1.632 12.298-2.36 18.321-1.63 13.476-3.316 27.411-6.54 40.849-9.574 39.907-33.494 65.685-71.099 76.619-27.715 8.060-57.083 8.789-87.289 2.169-39.15-8.579-65.284-32.668-77.679-71.598-7.826-24.578-10.528-51.571-8.504-84.946 2.156-35.56 14.761-67.071 37.466-93.658zM723.947 754.739c6.483 25.894 22.648 40.518 49.418 44.711 8.454 1.324 16.54 1.987 24.326 1.987 11.685 0 22.695-1.494 33.265-4.493 20.771-5.891 33.776-19.999 38.653-41.934 2.395-10.766 3.778-22.038 5.117-32.94 0.592-4.825 1.204-9.811 1.899-14.717-0.66-29.789-7.304-52.866-20.897-72.605-12.901-18.734-28.414-29.556-47.425-33.085-22.19-4.121-42.391 2.845-60.046 20.698-16.171 16.352-25.797 37.133-28.612 61.766-2.782 24.345-1.334 48.102 4.302 70.611zM227.029 552.749c16.604 0.001 33.343 3.797 49.129 11.632 29.135 14.458 50.521 38.022 63.567 70.035 18.559 45.543 19.041 94.888 1.431 146.665-10.862 31.935-34.025 52.944-68.848 62.444-23.62 6.443-49.153 7.538-75.884 3.25-45.233-7.251-74.669-33.021-87.491-76.594-5.094-17.314-7.765-37.022-7.939-58.576-0.665-48.418 11.272-85.408 37.565-116.41 23.478-27.682 55.719-42.447 88.469-42.446zM147.612 707.383c0.558 4.475 1.032 9.021 1.492 13.42 1.016 9.734 2.067 19.799 4.069 29.402 6.272 30.077 21.323 44.4 51.949 49.437 21.604 3.551 40.949 2.352 59.141-3.672 16.914-5.6 28.004-16.734 32.96-33.093 11.803-38.957 11.835-73.704 0.094-106.227-7.854-21.759-21.302-38.008-39.973-48.295-26.732-14.729-59.371-8.154-81.212 16.365-19.132 21.477-28.198 47.751-28.521 82.663zM259.845 302.911l1.258 4.618-6.858-0.002c-1.513-0.001-3.059-0.004-4.603 0.004-5.655 0.029-11.312 0.003-16.969-0.024-12.333-0.054-25.083-0.113-37.555 0.412-39.846 1.681-69.758 6.68-96.986 16.209-12.097 4.234-25.984 10.002-37.268 20.679-1.764 1.669-3.024 4.037-2.972 5.039 0.264 5.136 0.51 10.274 0.756 15.414 0.999 20.902 2.032 42.515 4.335 63.578 3.731 34.137 22.538 56.682 55.9 67.008 14.278 4.42 29.212 8.084 42.088 11.17 1.492 0.358 4.155-0.238 5.703-1.273 35.089-23.456 85.833-23.469 120.661-0.034 1.557 1.048 3.955 1.717 5.235 1.47 20.255-3.971 41.677-9.069 61.113-19.391 0.918-0.488 1.854-0.67 2.325-0.745l5.435-1.477-1.076 5.733c-0.68 3.625-1.345 7.234-2.008 10.829-1.968 10.674-4.003 21.713-6.315 32.465-0.77 3.581-4.55 7.5-8.091 8.386-21.296 5.336-42.742 10.378-63.743 14.986-3.632 0.797-7.924-1.402-10.496-3.527-1.859-1.537-3.376-3.304-4.843-5.013-1.435-1.672-2.79-3.252-4.302-4.413-10.512-8.078-30.89-11.354-48.449-7.791-12.69 2.575-22.081 8.235-26.442 15.937-1.806 3.19-5.365 6.648-12.053 5.003-7.393-1.815-14.968-3.529-22.295-5.186-15.063-3.407-30.64-6.931-45.672-11.569-47.809-14.751-77.2-45.927-87.356-92.662-7.671-35.302-8.184-71.082-8.046-107.688 0.033-8.514 5.888-16.546 7.682-18.804 15.836-19.942 37.485-30.674 56.573-38.542 29.002-11.955 61.706-19.185 99.983-22.107 16.826-1.283 33.956-1.502 50.522-1.713 5.038-0.064 10.074-0.129 15.108-0.221 0.039 0 0.079 0 0.119 0 3.070 0 8.068 2.126 9.111 5.556 2.89 9.5 5.418 18.884 8.094 28.82 0.791 2.937 1.586 5.89 2.396 8.864zM1007.728 438.679c-7.897 46.145-30.637 77.225-69.52 95.015-29.977 13.715-61.915 19.825-89.499 24.476-3.847 0.646-7.754-2.367-9.25-3.693-1.729-1.532-3.246-3.221-4.712-4.855-1.897-2.112-3.688-4.108-5.718-5.528-10.973-7.672-31.381-10.432-48.524-6.565-12.155 2.743-21.212 8.413-25.502 15.966-1.743 3.067-6.721 5.358-10.054 4.624-21.232-4.684-42.891-9.741-66.213-15.46-3.318-0.812-6.198-4.535-6.804-7.503-2.261-11.060-4.27-21.95-6.397-33.48-0.652-3.533-1.309-7.090-1.977-10.677l-1.404-7.529 6.738 3.642c20.129 10.879 42.601 16.193 61.93 19.958 1.563 0.305 4.003-0.181 5.324-1.062 36.143-24.094 85.040-24.031 121.674 0.16 1.454 0.962 3.315 1.344 3.965 1.18 2.514-0.629 5.031-1.252 7.548-1.874 12.425-3.071 25.272-6.247 37.54-10.275 31.485-10.336 49.375-31.246 53.174-62.149 2.112-17.169 3.237-34.804 4.325-51.859 0.594-9.293 1.207-18.902 1.974-28.352 0.314-3.867-0.891-6.406-4.444-9.365-12.059-10.044-26.694-17.135-47.455-22.991-44.238-12.48-90.231-13.712-129.385-13.279-4.010 0.043-8.020 0.031-11.973 0.020-1.806-0.006-3.599-0.011-5.374-0.011h-4.785l1.256-4.618c0.768-2.824 1.529-5.641 2.287-8.451 2.574-9.534 5.235-19.393 8.074-29.003 0.968-3.277 5.297-5.363 7.976-5.418 6.007-0.117 12.132-0.191 18.364-0.191 47.367 0.001 100.715 4.262 152.105 25.795 16.871 7.069 38.192 17.721 53.44 37.511 4.469 5.8 7.266 13.281 7.301 19.523 0.171 30.795-0.439 63.777-6.008 96.317z" />
<glyph unicode="&#xe928;" glyph-name="legal-community" d="M526.922 850.654c27.985-8.106 53.333-19.722 70.168-45.655 2.78-4.282 12.831-5.32 19.535-5.352 74.737-0.361 149.484-0.807 224.21 0.169 19.166 0.25 23.865-6.679 23.598-24.527-0.253-16.921-2.984-25.54-22.993-25.268-75.317 1.025-150.656 0.411-227.134 0.411-1.587-9.404-2.173-18.047-4.57-26.154-9.207-31.141-28.148-54.197-58.731-66.34-9.046-3.592-13.392-7.821-13.37-18.522 0.371-177.503 0.275-355.008 0.358-532.512 0.002-3.198 0.915-6.396 1.748-11.851 7.518 0 14.683 0 21.848 0 92.756-0.001 185.513 0.174 278.266-0.327 7.682-0.041 20.823-3.208 21.94-7.432 2.918-11.027 1.241-23.532-0.214-35.248-0.317-2.548-7.163-5.104-11.373-6.123-4.42-1.070-9.285-0.329-13.956-0.329-215.541-0.005-431.082-0.009-646.623 0.002-25.171 0.001-38.236 19.571-26.010 41.516 2.882 5.173 14.588 7.569 22.255 7.61 92.753 0.505 185.51 0.329 278.266 0.33 7.169 0 14.339 0 22.636 0 0 186.916 0 371.522 0 557.454-44.182 15.994-71.062 46.705-74.508 97.923-7.626 0-14.669 0-21.711 0-68.733 0-137.476 0.662-206.192-0.411-20.015-0.313-22.738 8.352-22.992 25.27-0.268 17.851 4.437 24.775 23.6 24.525 74.726-0.976 149.473-0.254 224.21-0.557 10.669-0.043 18.21 1.784 24.825 11.809 15.147 22.955 39.372 32.702 64.875 39.586 9.346 0 18.691 0 28.037 0zM462.86 752.124c-0.825-28.255 20.7-51.825 48.438-53.039 27.108-1.187 51.232 22.074 51.658 49.809 0.436 28.424-21.538 51.518-49.438 51.957-26.9 0.423-49.867-21.669-50.657-48.727zM10.24 394.051c43.344 71.050 86.633 142.133 130.059 213.133 15.299 25.014 30.747 49.941 46.465 74.692 14.912 23.48 33.922 24.281 48.267 1.293 56.095-89.891 112.426-179.653 166.745-270.612 7.976-13.356 10.018-33.702 7.231-49.475-17.247-97.626-98.798-165.33-196.636-165.75-98.493-0.423-179.063 65.896-198.703 163.452-0.64 3.18-2.264 6.162-3.429 9.236 0 8.011 0 16.021 0 24.032zM70.361 399.683c95.414 0 188.058 0 282.987 0-47.741 76.583-94.107 150.96-141.967 227.734-47.437-76.606-93.613-151.175-141.020-227.734zM350.813 346.399c-94.383 0-187.175 0-280.532 0 19.875-60.189 82.728-102.604 146.079-99.973 61.424 2.552 120.792 46.225 134.452 99.973zM813.515 197.334c-97.744-0.199-181.106 70.218-197.791 167.221-3.263 18.97-0.59 36.276 10.162 53.376 54.587 86.812 108.234 174.215 162.346 261.327 17.3 27.851 35.207 27.87 52.6-0.084 52.412-84.24 103.773-169.15 157.381-252.619 16.301-25.381 18.999-49.562 11.735-77.554-23.453-90.37-102.069-151.474-196.433-151.667zM814.538 627.519c-47.801-77.314-93.851-151.794-141.015-228.077 95.545 0 188.105 0 283.142 0-47.654 76.473-93.992 150.833-142.127 228.077zM673.608 346.95c17.44-58.206 80.119-101.622 143.105-100.623 62.088 0.985 122.136 44.475 137.56 100.623-93.177 0-186.020 0-280.665 0z" />
<glyph unicode="&#xe929;" glyph-name="customize-exp" d="M279.263 347.655c0-74.286-60.225-134.511-134.511-134.511s-134.511 60.225-134.511 134.511 60.225 134.511 134.511 134.511 134.511-60.225 134.511-134.511zM144.751 145.865c-30.040 0-58.453 6.773-84.098 18.602v-131.338c0-43.17 35.321-78.491 78.491-78.491h11.213c43.17 0 78.491 35.321 78.491 78.491v131.327c-25.644-11.819-54.058-18.591-84.098-18.591zM60.654 530.853v332.029c0 43.17 35.321 78.491 78.491 78.491h11.213c43.17 0 78.491-35.321 78.491-78.491v-332.029c-21.305 9.823-44.549 16.012-69.039 17.829-4.967 0.449-9.968 0.762-15.059 0.762s-10.092-0.314-15.059-0.762c-24.489-1.817-47.734-8.017-69.039-17.829zM643.686 605.554c0-74.286-60.225-134.511-134.511-134.511s-134.511 60.225-134.511 134.511 60.225 134.511 134.511 134.511 134.511-60.225 134.511-134.511zM494.115 806.581c4.967 0.449 9.968 0.762 15.059 0.762s10.092-0.314 15.059-0.762c24.5-1.817 47.734-8.017 69.039-17.829v74.129c0 43.17-35.321 78.491-78.491 78.491h-11.213c-43.17 0-78.491-35.321-78.491-78.491v-74.129c21.305 9.811 44.549 16.012 69.039 17.829zM509.174 403.765c-30.040 0-58.453 6.773-84.098 18.602v-389.237c0-43.17 35.321-78.491 78.491-78.491h11.213c43.17 0 78.491 35.321 78.491 78.491v389.226c-25.644-11.818-54.058-18.591-84.098-18.591zM1013.76 302.803c0-74.286-60.225-134.511-134.511-134.511s-134.511 60.225-134.511 134.511c0 74.286 60.225 134.511 134.511 134.511s134.511-60.225 134.511-134.511zM879.249 504.592c30.040 0 58.453-6.773 84.098-18.602v376.892c0 43.17-35.321 78.491-78.491 78.491h-11.213c-43.17 0-78.491-35.321-78.491-78.491v-376.881c25.633 11.818 54.058 18.591 84.098 18.591zM894.308 101.776c-4.967-0.449-9.968-0.762-15.059-0.762s-10.092 0.314-15.059 0.762c-24.5 1.817-47.734 8.017-69.039 17.829v-86.486c0-43.17 35.321-78.491 78.491-78.491h11.213c43.17 0 78.491 35.321 78.491 78.491v86.486c-21.305-9.811-44.549-16.012-69.039-17.829z" />
<glyph unicode="&#xe92a;" glyph-name="search" d="M998.313 49.010l-202.771 165.904c57.532 74.206 91.901 167.225 91.901 268.175 0 241.848-196.754 438.601-438.601 438.601s-438.601-196.754-438.601-438.601 196.754-438.601 438.601-438.601c110.56 0 211.62 41.206 288.843 108.955l207.311-169.619c7.826-6.401 17.256-9.512 26.631-9.512 12.199 0 24.288 5.263 32.621 15.447 14.721 17.996 12.062 44.518-5.935 59.252zM94.451 483.088c0 195.411 158.979 354.39 354.39 354.39s354.39-158.979 354.39-354.39-158.979-354.39-354.39-354.39-354.39 158.979-354.39 354.39z" />
<glyph unicode="&#xe92b;" glyph-name="minus" d="M10.24 538.596h1003.52v-181.191h-1003.52v181.191z" />
<glyph unicode="&#xe92c;" glyph-name="plus" d="M10.24 538.596h1003.52v-181.191h-1003.52v181.191zM602.596 949.76v-1003.52h-181.191v1003.52h181.191z" />
<glyph unicode="&#xe92d;" glyph-name="photo" d="M832.048 37.066h-640.105c-100.194 0-181.703 81.518-181.703 181.712v308.728c0 93.716 76.241 169.962 169.957 169.962h18.649c22.423 0 40.672 18.245 40.672 40.668 0 66.607 54.183 120.799 120.791 120.799h303.372c66.607 0 120.799-54.192 120.799-120.799 0-22.423 18.249-40.668 40.672-40.668h18.641c93.716 0 169.966-76.245 169.966-169.962v-308.728c0-100.194-81.518-181.712-181.712-181.712zM180.197 617.34c-49.532 0-89.83-40.303-89.83-89.834v-308.728c0-56.018 45.567-101.585 101.576-101.585h640.105c56.018 0 101.585 45.567 101.585 101.585v308.728c0 49.532-40.298 89.834-89.839 89.834h-18.641c-66.607 0-120.799 54.188-120.799 120.795 0 22.427-18.249 40.672-40.672 40.672h-303.372c-22.423 0-40.664-18.245-40.664-40.672 0-66.607-54.192-120.795-120.799-120.795h-18.649zM512 165.881c-127.816 0-231.809 103.993-231.809 231.809s103.993 231.805 231.809 231.805 231.8-103.989 231.8-231.805-103.984-231.809-231.8-231.809zM512 549.363c-83.64 0-151.682-68.042-151.682-151.673 0-83.64 68.042-151.682 151.682-151.682 83.631 0 151.673 68.042 151.673 151.682 0 83.631-68.042 151.673-151.673 151.673z" />
<glyph unicode="&#xe92e;" glyph-name="calendar" d="M807.91 821.104h-81.482v90.059c0 21.317-17.28 38.597-38.597 38.597s-38.597-17.28-38.597-38.597v-90.059h-248.736v90.059c0 21.317-17.28 38.597-38.597 38.597s-38.597-17.28-38.597-38.597v-90.059h-107.214c-78.031 0-141.522-63.486-141.522-141.522v-591.82c0-78.031 63.491-141.522 141.522-141.522h591.82c78.031 0 141.522 63.491 141.522 141.522v591.82c0 78.036-63.491 141.522-141.522 141.522zM216.090 743.91h107.214v-90.059c0-21.317 17.28-38.597 38.597-38.597s38.597 17.28 38.597 38.597v90.059h248.736v-90.059c0-21.317 17.28-38.597 38.597-38.597s38.597 17.28 38.597 38.597v90.059h81.482c35.473 0 64.328-28.856 64.328-64.328v-115.791h-720.476v115.791c0 35.473 28.856 64.328 64.328 64.328zM807.91 23.434h-591.82c-35.473 0-64.328 28.856-64.328 64.328v398.835h720.476v-398.835c0-35.473-28.856-64.328-64.328-64.328z" />
<glyph unicode="&#xe92f;" glyph-name="videos" d="M716.784 411.24l-273.117-142.74c-6.106-3.191-12.783-4.775-19.451-4.775-7.55 0-15.084 2.032-21.757 6.072-12.564 7.613-20.237 21.232-20.237 35.921v284.565c0 14.664 7.651 28.27 20.19 35.888 12.543 7.618 28.144 8.138 41.158 1.377l273.117-141.82c13.896-7.214 22.622-21.559 22.643-37.21 0.017-15.664-8.672-30.030-22.546-37.278zM512-53.76c-276.673 0-501.76 225.087-501.76 501.76s225.087 501.76 501.76 501.76 501.76-225.087 501.76-501.76-225.087-501.76-501.76-501.76zM512 904.556c-251.745 0-456.556-204.811-456.556-456.556s204.811-456.556 456.556-456.556 456.556 204.811 456.556 456.556-204.811 456.556-456.556 456.556z" />
<glyph unicode="&#xe930;" glyph-name="time" d="M512 871.36c233.441 0 423.36-189.919 423.36-423.36s-189.919-423.36-423.36-423.36c-233.442 0-423.36 189.919-423.36 423.36s189.918 423.36 423.36 423.36zM512 949.76c-277.114 0-501.76-224.645-501.76-501.76s224.646-501.76 501.76-501.76 501.76 224.645 501.76 501.76-224.646 501.76-501.76 501.76v0zM692.305 189.28c-9.54 0-19.11 3.461-26.659 10.474l-232.046 215.477v299.329c0 21.652 17.548 39.2 39.2 39.2s39.2-17.548 39.2-39.2v-265.151l206.994-192.203c15.864-14.731 16.782-39.537 2.052-55.401-7.717-8.315-18.222-12.526-28.742-12.526z" />
<glyph unicode="&#xe931;" glyph-name="print" d="M1011.392 621.389c-0.209 0.429-0.434 1.929-0.587 2.919-0.27 1.776-0.572 3.552-1.061 5.256-12.512 43.324-52.484 73.932-97.207 74.432l-8.175 0.102c-17.029 0.214-34.639 0.429-52.055-0.255 0 0.061 0 0.133 0 0.194 0.122 26.066 0.097 52.142 0.077 78.208-0.036 38.456-0.066 78.218 0.383 117.297 0.276 24.556-9.43 40.671-29.679 49.264l-1.96 0.837h-618.246l-1.954-0.827c-20.238-8.593-29.944-24.709-29.674-49.264 0.398-35.925 0.378-71.86 0.352-107.785-0.015-29.26-0.036-58.511 0.173-87.761 0-0.051 0-0.102 0-0.153-0.24-0.010-0.5-0.010-0.781-0.010-6.838-0.173-13.86 0.184-20.81 0.398-17.126 0.5-34.843 1.010-52.55-1.704-43.712-6.705-75.585-37.037-85.572-81.648-0.301-0.612-0.597-1.235-0.862-1.847l-0.842-1.97v-366.7l-0.122-3.562 2.378-2.888c0.199-0.429 0.424-1.909 0.572-2.899 0.27-1.796 0.572-3.582 1.072-5.307 12.742-43.947 51.805-73.85 97.201-74.412l6.741-0.082c17.508-0.225 35.598-0.459 53.505 0.235 0-0.061 0-0.122 0-0.184-0.133-22.351-0.102-44.712-0.071-67.073 0.041-32.047 0.087-65.185-0.378-97.732-0.347-24.596 9.364-40.712 29.689-49.285l1.949-0.827h618.235l1.96 0.837c20.305 8.644 30.011 24.77 29.679 49.295-0.388 28.301-0.357 56.612-0.332 84.913 0.026 26.331 0.051 52.663-0.255 78.984-0.005 0.408-0.005 0.776 0.005 1.092 0.475 0.010 1.051 0.020 1.699 0.020 6.389-0.031 12.793-0.235 19.197-0.439 17.365-0.551 35.323-1.112 53.265 1.643 43.692 6.675 75.575 37.017 85.194 80.831l2.102 4.715v366.679l0.112 3.572-2.368 2.888zM852.486 412.361c0.010 29.271-16.585 46.070-45.539 46.080-196 0.031-392.031 0.041-588.036 0.031-31.429 0-47.371-15.86-47.391-47.121l-0.015-17.871c-0.041-50.030-0.082-100.059 0.184-150.078-7.496 0.214-15.033 0.276-22.499 0.276-4.975 0-9.92-0.031-14.804-0.051-6.358-0.041-12.722-0.112-19.095-0.051-14.569 0.051-22.596 8.022-22.601 22.443-0.041 110.643-0.041 221.275-0.010 331.908 0.005 16.238 7.67 23.8 24.117 23.81l396.185 0.010c131.090-0.031 262.206-0.010 393.312-0.020 17.784 0 25.040-7.175 25.040-24.77l0.010-327.121c0-19.636-6.685-26.27-26.484-26.28l-16.069 0.061c-12.171 0.082-24.316 0.153-36.445-0.143 0.168 40.875 0.158 81.76 0.148 122.645l-0.005 46.243zM770.333 703.924c-172.225 0.194-344.43 0.184-516.645-0.031 0.321 53.765 0.316 108.785-0.026 163.601 68.416-0.184 136.811-0.143 205.252-0.163h107.821c67.895-0.010 135.749-0.031 203.629 0.153-0.367-53.785-0.383-108.795-0.031-163.56zM770.358 28.505c-90.124 0.112-180.237 0.163-270.366 0.163-82.122 0-164.234-0.051-246.356-0.153 0.291 115.409 0.291 232.42 0 347.819 67.579-0.245 135.178-0.235 202.751-0.194l111.342-0.031c67.538 0.010 135.091-0.031 202.629 0.163-0.27-115.399-0.27-232.379 0-347.768zM890.829 538.894c0.27 11.155-3.797 21.698-11.451 29.679-7.629 7.961-17.942 12.461-29.046 12.666-22.611 0.214-41.263-17.513-41.768-39.926-0.255-11.186 3.827-21.749 11.497-29.73 7.614-7.94 17.906-12.421 28.97-12.625 0.26 0 0.51-0.010 0.765-0.010 22.172 0 40.507 17.769 41.033 39.946z" />
<glyph unicode="&#xe932;" glyph-name="share" d="M35.653 424.247c3.778 78.781 40.121 141.197 114.748 176.549 74.177 35.138 145.299 24.694 210.351-25.279 5.186-3.984 8.71-5.601 15.153-2.162 71.003 37.904 142.146 75.549 213.441 112.901 7.326 3.838 8.268 7.491 6.336 15.279-29.294 118.067 51.085 233.371 171.812 246.979 106.004 11.948 201.989-63.307 218.69-171.459 15.778-102.175-56.493-202.789-159.683-222.337-56.822-10.764-108.516 1.563-155.302 34.97-5.492 3.922-9.271 4.567-15.386 1.299-72.913-38.968-145.964-77.68-219.115-116.2-6.090-3.207-8.185-5.951-6.454-13.301 5.312-22.557 5.757-45.544 2.271-68.45-0.818-5.373 0.34-7.729 5.281-9.855 69.551-29.945 139.054-60.002 208.441-90.325 5.834-2.55 8.655 0.236 12.323 3.374 39.061 33.42 84.39 49.604 135.723 48.479 109.365-2.396 197.589-96.422 193.244-205.697-4.592-115.484-101.438-201.176-217.121-192.114-113.882 8.92-198.313 118.587-177.865 231.462 1.594 8.801-0.363 12.412-8.837 16.001-65.37 27.684-130.491 55.959-195.559 84.349-6.865 2.995-11.126 2.698-17.117-2.636-59.167-52.681-127.357-68.641-202.053-42.143-74.625 26.473-117.551 81.826-131.043 159.766-1.546 8.933-1.405 18.158-2.28 30.551zM890.831 145.641c-0.359 57.215-46.673 103.196-103.205 102.466-56.506-0.729-101.678-46.794-101.295-103.295 0.388-57.048 46.277-102.065 103.757-101.783 55.358 0.272 101.093 46.855 100.743 102.611zM686.327 750.479c-0.115-56.516 45.237-102.407 101.7-102.909 56.083-0.499 102.508 45.458 102.824 101.787 0.321 57.149-45.285 103.198-102.255 103.249-56.446 0.050-102.154-45.594-102.269-102.126zM337.516 421.786c-0.968 57.506-47.39 103.246-103.599 102.076-57.543-1.198-101.977-47.866-100.827-105.895 1.106-55.773 48.35-100.319 105.189-99.184 54.893 1.096 100.161 48.082 99.237 103.003z" />
<glyph unicode="&#xe933;" glyph-name="our-mission" d="M543.313 949.716c16.009-3.141 32.449-2.278 48.495-5.648 15.14-3.18 25.62-14.761 23.901-28.268-1.789-14.055-14.263-23.132-29.987-21.167-35.997 4.499-71.913 7.658-108.342 4.61-78.754-6.589-151.265-30.879-216.443-75.499-108.777-74.467-175.293-177.015-195.114-307.292-31.034-203.969 79.29-402.729 270.451-481.965 160.721-66.619 313.837-45.361 452.634 59.377 94.696 71.459 149.996 168.778 169.47 285.884 9.094 54.685 6.276 109.309-4.205 163.617-3.195 16.556 4.192 28.775 19.2 31.814 15.149 3.068 27.036-5.265 30.105-21.942 31.514-171.276-8.892-322.667-128.28-450.435-81.873-87.62-184.001-137.519-303.011-152.939-8.961-1.161-18.25-0.173-26.912-3.578-22.211 0-44.423 0-66.634 0-8.301 3.542-17.291 2.366-25.916 3.453-112.539 14.182-209.735 60.568-290.755 139.693-75.121 73.364-122.557 162.038-142.471 265.379-4.698 24.38-6.042 49.081-9.257 73.593 0 16.332 0 32.664 0 48.996 0.606 3.17 1.572 6.319 1.761 9.514 1.273 21.531 4.522 42.799 9.065 63.831 24.393 112.929 80.806 206.978 169.022 281.299 66.009 55.612 141.669 92.080 226.809 108.378 21.129 4.045 42.53 5.788 63.702 9.296 20.905 0 41.81 0 62.715 0zM512.946 723.218c14.351 0.011 28.721-0.617 42.839-3.434 14.466-2.887 24.422-16.355 22.008-28.923-2.727-14.193-15.212-22.35-30.797-20.121-128.726 18.405-246.094-71.501-257.359-201.328-7.799-89.889 27.584-163.138 104.997-210.975 135.361-83.645 307.503-6.651 337.842 149.498 5.4 27.792 5.272 55.831-0.489 83.668-2.224 10.748-2.486 20.935 6.777 28.758 15.691 13.252 37.699 5.84 41.618-14.442 18.044-93.391-4.889-175.787-70.093-244.795-59.287-62.746-133.689-90.78-219.723-84.977-116.865 7.883-218.635 96.553-245.089 210.674-33.859 146.062 53.084 280.864 182.694 323.315 27.481 9.001 55.768 13.469 84.773 13.082zM462.298 453.236c0.123 23.845 21.984 44.379 45.58 42.228 4.909-0.447 7.847 0.957 11.025 4.239 38.396 39.65 76.849 79.245 115.445 118.7 3.719 3.802 5.156 7.679 5.234 12.918 0.541 36.248 1.575 72.489 1.97 108.737 0.118 10.821 3.689 19.213 11.241 27.021 51.313 53.054 102.311 106.414 153.445 159.641 11.244 11.704 21.707 14.509 33.196 9.166 11.518-5.356 15.975-15.965 14.537-32.157-2.8-31.542-4.994-63.139-7.895-94.671-0.695-7.551 3.265-5.998 7.591-5.509 33.079 3.736 66.16 7.452 99.251 11.083 13.503 1.482 22.047-2.396 26.48-11.699 5.397-11.327 3.516-22.467-5.996-32.298-38.154-39.431-76.415-78.758-114.623-118.137-14.328-14.767-28.953-29.265-42.79-44.48-7.258-7.981-15.801-10.615-26.003-11.058-35.233-1.53-70.449-3.458-105.683-4.973-5.936-0.255-10.242-2.169-14.429-6.52-38.274-39.768-76.756-79.336-115.25-118.892-3.275-3.366-5.314-6.334-4.96-11.738 1.668-25.507-18.083-46.476-43.262-46.749-24.752-0.269-44.235 19.674-44.104 45.146zM889.459 753.124c-7.223 1.267-12.295 0.157-17.396-0.371-16.546-1.714-33.065-3.906-49.655-4.917-19.723-1.203-31.066 11.408-29.184 31.133 1.58 16.562 3.173 33.125 4.501 49.708 0.361 4.505 1.602 9.246-0.545 14.587-34.362-35.063-67.912-69.335-101.536-103.535-2.479-2.521-3.43-5.212-3.506-8.696-0.606-27.735-1.268-55.47-2.147-83.197-0.168-5.302 0.904-7.505 6.948-7.114 24.421 1.582 48.867 2.928 73.324 3.745 9.709 0.324 17.265 2.962 23.66 10.802 6.986 8.565 15.323 16.030 23.090 23.956 23.722 24.207 47.452 48.404 72.447 73.899z" />
<glyph unicode="&#xe934;" glyph-name="our-vision" d="M10.24 471.569c4.333 11.992 12.95 18.669 25.099 22.395 18.093 5.549 35.918 12.015 53.71 18.495 15.385 5.603 27.693 3.040 32.949-13.581 3.293-10.412 7.908-10.976 17.079-7.625 35.568 12.998 71.31 25.539 107.171 37.706 8.367 2.839 11.734 5.633 8.205 15.149-6.331 17.072 1.733 27.17 18.027 32.747 43.245 14.802 86.404 29.861 129.519 45.039 6.882 2.422 16.788 3.349 12.048 15.26-8.036 20.193 3.211 28.64 20.207 34.538 74.026 25.689 147.863 51.927 221.991 77.318 13.901 4.761 24.795 7.405 18.106 26.993-4.69 13.736 7.388 20.705 19.326 24.866 38.232 13.324 76.498 26.55 114.645 40.113 5.233 1.861 11.765 1.765 15.033 7.685 3.928 0 7.856 0 11.784 0 4.462-3.728 11.993-6.849 12.868-11.285 4.379-22.195 19.352-18.045 35.333-17.843 57.892 0.729 107.567-36.019 124.337-90.107 17.106-55.171-2.466-111.483-51.205-144.485-10.185-6.897-16.853-12.089-10.563-25.853 5.087-11.132-0.395-21.297-11.642-25.391-46.007-16.75-92.204-32.993-138.537-48.822-11.713-4.002-22.006 1.765-25.015 12.899-4.32 15.98-12.942 12.119-23.325 8.469-74.525-26.202-149.201-51.979-223.621-78.475-18.9-6.729-34.381-8.896-42.242 14.869-3.681 11.127-11.735 4.591-17.865 2.473-41.959-14.495-83.953-28.907-125.684-44.039-17.939-6.505-32.226-6.378-38.873 14.871-2.255 7.209-5.674 8.366-12.985 5.719-36.828-13.335-73.791-26.323-110.952-38.696-9.9-3.296-9.583-8.655-6.864-16.295 5.635-15.835-1.66-24.989-16.067-30.101-18.454-6.548-36.933-13.033-55.479-19.317-22.784-7.72-30.859-3.999-38.715 18.238-14.57 41.241-28.847 82.586-43.355 123.85-1.028 2.925-2.945 5.538-4.449 8.296 0 1.309 0 2.619 0 3.928zM748.366 558.445c-0.050 0.182-0.463 2.105-1.106 3.947-16.786 48.062-33.714 96.075-50.3 144.206-3.129 9.080-7.923 9.897-16.314 6.936-70.172-24.767-140.43-49.291-210.77-73.577-8.974-3.098-10.218-7.297-7.121-15.918 16.99-47.287 33.641-94.7 49.877-142.251 2.926-8.569 5.789-11.566 15.264-8.209 70.751 25.065 141.692 49.594 212.518 74.45 3.887 1.364 9.697 1.855 7.952 10.417zM898.002 570.754c-0.494 1.602-1.011 3.488-1.654 5.33-24.752 70.942-49.616 141.845-74.156 212.86-3.191 9.235-7.834 9.833-16.188 6.747-24.511-9.056-49.241-17.536-74.029-25.812-8.436-2.816-10.685-6.061-7.336-15.407 25.118-70.105 49.695-140.406 73.921-210.824 2.94-8.547 5.935-12.146 15.1-8.806 25.167 9.172 50.469 17.973 75.746 26.84 4.394 1.541 9.001 2.615 8.595 9.072zM338.246 446.108c1.87 0.588 3.759 1.123 5.608 1.771 36.963 12.949 73.812 26.241 110.96 38.636 9.157 3.055 8.849 7.896 6.427 14.772-8.891 25.243-18.076 50.387-26.553 75.768-2.768 8.289-6.785 9.705-14.594 6.928-36.911-13.124-73.947-25.898-110.946-38.775-6.439-2.241-9.366-5.137-6.434-12.986 9.82-26.29 18.714-52.925 28.133-79.366 1.177-3.305 1.48-8.347 7.399-6.749zM873.257 776.271c2.879-19.455 47.347-145.022 56.072-158.332 37.412 23.972 51.46 63.306 36.828 103.122-14.272 38.836-50.156 60.162-92.9 55.21zM156.636 420.72c39.821 13.994 79.22 27.586 118.408 41.764 11.921 4.313 1.899 12.102 0.96 17.779-0.939 5.676-2.471 13.91-12.37 10.456-38.121-13.299-76.224-26.649-114.383-39.838-7.666-2.65-8.16-8.051-4.928-13.687 3.407-5.94 0.794-17.043 12.313-16.474zM82.987 466.129c-15.783 0.045-22.737-9.821-17.25-25.591 8.106-23.298 16.806-46.405 24.233-69.915 3.879-12.28 10.735-7.836 18.012-5.257 7.24 2.566 15.723 3.439 11.356 15.319-9.401 25.577-18.047 51.43-27.149 77.119-1.412 3.984-2.026 9.318-9.202 8.325zM784.075 47.334c-7.702 7.826-14.326 16.406-20.302 25.69-58.709 91.206-117.642 182.268-176.536 273.355-3.88 6.001-7.963 11.871-12.116 18.047-7.477-3.665-9.637-10.834-13.314-16.502-59.385-91.548-118.661-183.167-177.706-274.934-5.982-9.297-12.737-17.752-20.332-25.657-3.928 0-7.856 0-11.784 0-19.625 14.976-20.811 21.055-7.207 42.131 58.139 90.069 116.381 180.072 175.364 271.304-8.635 3.243-14.748-1.524-20.794-3.595-13.974-4.787-25.222-2.597-30.214 12.092-5.091 14.98 3.59 23.146 17.037 27.823 48.755 16.958 97.47 34.033 146.198 51.068 6.782 2.371 13.411 5.379 20.365 7.011 12.455 2.923 22.292-0.924 26.291-13.878 3.706-12.008-1.691-20.745-12.684-25.177-14.527-5.857-29.288-11.386-44.361-15.567-14.432-4.003-14.471-9.298-6.746-21.113 58.34-89.232 116.012-178.9 173.895-268.431 4.616-7.139 9.307-14.231 13.86-21.41 13.384-21.104 12.334-27.211-7.13-42.259-3.928 0-7.856 0-11.784 0z" />
<glyph unicode="&#xe935;" glyph-name="uae-vision" d="M783.929 829.021c21.107-42.435 12.623-90.578-22.482-123.682-7.361-6.937-12.056-12.006-5.164-22.312 5.566-8.367 2.48-17.32-6.111-22.106-35.044-19.583-70.31-38.809-105.759-57.707-8.951-4.78-18.041-1.455-21.922 7.185-5.591 12.345-12.082 8.094-19.998 3.776-56.891-30.988-113.965-61.648-170.751-92.88-14.415-7.917-26.662-11.697-36.14 6.513-4.448 8.515-10.112 2.18-14.795-0.341-32.063-17.239-64.167-34.42-95.989-52.142-13.678-7.634-25.237-9.41-33.4 6.924-2.793 5.553-5.709 6.026-11.279 2.937-28.078-15.647-56.303-30.991-84.764-45.884-7.581-3.97-6.621-8.286-3.395-14.095 6.625-12.079 1.91-20.448-9.059-26.468-14.086-7.733-28.215-15.408-42.4-22.929-17.43-9.254-24.439-7.289-33.716 9.68-17.21 31.48-34.213 63.091-51.359 94.581-1.213 2.251-3.112 4.098-4.681 6.128-0.175 1.081-0.345 2.131-0.515 3.18 1.921 10.298 8.010 16.833 17.384 21.42 13.897 6.887 27.49 14.442 41.046 22.024 11.729 6.568 22.018 6.114 28.46-6.648 4.042-8.026 7.835-7.869 14.839-3.959 27.075 15.191 54.365 30.057 81.808 44.589 6.398 3.419 8.767 6.12 4.657 13.353-7.362 13.004-2.167 22.234 10.299 28.888 33.076 17.632 66.015 35.502 98.944 53.437 5.246 2.874 13.141 4.904 7.758 13.953-9.168 15.29-1.181 23.601 11.816 30.603 56.576 30.513 112.889 61.441 169.57 91.71 10.629 5.704 19.125 9.268 11.12 24.224-5.588 10.517 3.258 17.76 12.384 22.666 29.223 15.832 58.466 31.537 87.562 47.545 3.987 2.18 9.277 2.972 11.175 8.175 3.18 0.515 6.36 1.031 9.541 1.546 4.083-2.439 10.596-3.962 11.878-7.442 6.474-17.391 18.044-12.056 30.961-9.8 46.783 8.169 91.799-15.051 112.475-56.642zM735.143 728.491c27.132 24.305 33.358 57.984 16.27 88.309-16.636 29.549-48.501 42.107-82.452 32.493 4.873-15.366 57.349-111.202 66.182-120.802zM710.186 677.677c3.356 1.849 6.937 3.311 5.774 8.475-0.625 1.237-1.286 2.696-2.037 4.109-29.343 54.187-58.776 108.327-87.97 162.604-3.787 7.056-7.617 6.925-13.989 3.347-18.654-10.562-37.576-20.678-56.56-30.609-6.435-3.393-7.851-6.331-3.89-13.457 29.516-53.441 58.649-107.14 87.479-160.986 3.503-6.514 6.426-9.043 13.398-5.139 19.179 10.745 38.505 21.188 57.794 31.657zM591.35 647.094c2.968 1.623 7.613 2.768 5.090 9.474-0.089 0.149-0.66 1.655-1.438 3.031-19.888 36.725-39.892 73.365-59.631 110.18-3.735 6.934-7.723 6.973-14.105 3.458-53.583-29.245-107.224-58.336-160.996-87.22-6.875-3.693-7.31-7.255-3.669-13.813 19.943-36.063 39.648-72.263 59.023-108.646 3.509-6.546 6.222-8.587 13.448-4.642 53.982 29.603 108.2 58.755 162.276 88.178zM368.189 559.82c7.040 3.686 6.151 7.557 3.278 12.803-10.496 19.252-21.241 38.431-31.44 57.862-3.314 6.349-6.775 6.963-12.706 3.685-28.172-15.466-56.487-30.662-84.753-45.948-4.922-2.658-6.894-5.393-3.51-11.372 11.398-19.987 22.112-40.379 33.212-60.544 1.387-2.517 2.274-6.583 6.865-4.501 1.449 0.724 2.904 1.417 4.316 2.168 28.225 15.344 56.313 30.927 84.737 45.847zM225.818 516.774c9.069 5.060-0.061 10.042-1.571 14.53-1.505 4.456-3.828 10.933-11.388 6.836-29.101-15.78-58.196-31.592-87.349-47.249-5.883-3.173-5.558-7.591-2.208-11.748 3.545-4.354 2.873-13.699 12.145-11.707 30.381 16.542 60.495 32.715 90.372 49.339zM103.305 416.241c5.517 3.015 12.272 4.828 7.181 13.892-10.956 19.471-21.343 39.263-32.092 58.866-1.665 3.026-2.875 7.269-8.534 5.536-12.789-2.040-17.125-10.934-10.601-22.997 9.607-17.797 19.666-35.357 28.758-53.401 4.761-9.444 9.744-4.948 15.288-1.896zM331.206 223.931c35.249 80.549 70.604 161.050 106.399 242.667-7.419 1.474-11.757-3.178-16.381-5.657-10.693-5.715-20.077-5.408-26.043 5.832-6.098 11.447-0.142 19.2 10.153 24.752 37.24 20.134 74.432 40.359 111.667 60.524 5.156 2.826 10.138 6.114 15.551 8.362 9.7 3.987 18.187 2.164 23.095-7.778 4.598-9.242 1.359-17.045-6.968-22.050-10.962-6.672-22.198-13.062-33.858-18.444-11.146-5.135-10.487-9.402-2.702-17.964 58.967-64.595 117.418-129.633 176.007-194.518 4.691-5.18 9.403-10.291 14.035-15.513 13.612-15.32 13.557-20.42-0.211-35.152-3.18-0.515-6.36-1.031-9.541-1.546-7.264 5.35-13.762 11.412-19.812 18.134-59.511 66.139-119.16 132.125-178.782 198.148-3.937 4.355-8.017 8.59-12.198 13.036-5.558-3.969-6.369-10.040-8.616-15.104-36.071-81.922-72.042-163.861-107.796-245.928-3.618-8.289-7.979-16.012-13.076-23.431-3.18-0.515-6.36-1.031-9.541-1.546-17.87 9.571-19.617 14.314-11.381 33.175zM1013.118 518.467c-2.116 20.437-7.324 40.324-9.681 60.685-2.68 23.154-14.2 39.902-35.823 49.114-5.127 2.184-6.304 5.109-5.609 10.55 1.765 13.819 3.407 27.676 1.024 41.689-3.216 18.913-15.915 33.398-33.804 37.79-20.18 4.955-32.385-0.256-35.431-16.878-4.958-27.049-18.697-47.589-41.056-63.363-26.49-18.687-50.098-40.385-66.308-69.116-5.592-9.911-11.819-19.463-17.693-29.217-11.378-18.895-24.582-36.153-41.583-50.549-16.696-14.138-29.674-31.475-39.219-51.204-7.929-16.387-15.422-32.985-23.239-49.428-1.738-3.656-3.623-7.218-5.707-10.651-1.047-1.724-0.517-3.989 1.175-5.087 6.636-4.307 11.455-10.964 14.066-17.644 0.050-0.127 0.104-0.253 0.168-0.373 2.016-3.836 6-5.422 10.119-6.757 1.577-0.511 3.295 0.086 4.238 1.449 4.266 6.169 8.007 12.789 11.405 19.669 7.43 15.045 14.373 30.334 21.329 45.608 8.032 17.637 18.949 33.217 33.829 45.596 18.894 15.717 33.513 34.806 46.217 55.575 3.714 6.071 7.637 12.029 11.067 18.257 15.062 27.345 34.574 50.543 60.338 68.655 16.096 11.316 31.003 24.019 42.122 40.232 2.141 3.121 7.041 1.458 6.793-2.319-0.17-2.594-0.319-5.189-0.424-7.786-0.723-17.871 6.993-31.287 23.396-38.061 12.263-5.065 18.152-12.768 19.521-25.956 1.671-16.097 5.081-32.018 7.855-47.995 4.062-23.392-2.413-43.736-16.105-62.516-1.535-2.105-4.684-2.061-6.135 0.103-2.88 4.298-4.764 9.075-7.298 13.426-3.151 5.412-5.883 11.103-10.309 15.629-10.642 10.885-24.462 10.379-34.153-1.378-8.464-10.269-11.429-22.841-13.438-35.513-1.557-9.821-2.334-19.834 0.875-29.637 0.901-2.753 1.134-5.461-0.778-8.128-7.879-10.99-6.322-22.687-1.743-34.21 3.91-9.839 7.302-19.418 6.463-30.451-0.765-10.062 6.16-17.345 13.68-23.263 3.947-3.106 8.165-5.854 12.493-8.402 6.281-3.698 3.817-6.576-0.955-9.069-7.461-3.897-15.799-4.532-23.956-5.712-12.13-1.756-24.262-3.492-35.081-9.874-13.633-8.042-16.216-20.799-6.179-32.919 6.149-7.425 4.655-15.521 3.083-23.56-3.47-17.736-11.659-33.845-18.34-50.441-15.807-39.261-25.595-79.432-22.976-122.275 1.54-25.19-7.62-33.049-32.683-27.938-84.602 17.253-170.513 25.732-255.719 38.911-34.882 5.395-69.954 9.485-105.298 10.985-23.039 0.978-41.46 9.759-55.566 29.679-35.561 50.218-73.496 98.682-113.513 145.475v0c-2.089 2.447-0.283 6.208 2.933 6.115 11.898-0.345 23.234 0.11 34.515 0.945 1.858 0.138 3.327 1.637 3.428 3.497 0.603 11.068 2.658 22.215 2.016 33.565-0.121 2.137-1.999 3.734-4.127 3.505-8.518-0.916-17.122-0.953-25.679-1.283-14.517-0.56-14.631-0.29-15.024 14.467-0.413 15.496-4.304 29.737-13.866 42.248-5.355 7.006-12.286 10.664-20.781 8.576-5.438-1.337-10.47-1.070-15.848-0.743-12.020 0.731-23.279-2.819-30.141-12.747-5.813-8.41-8.976-18.986-3.362-29.049 7.131-12.782 9.651-27.308 17.378-40.061 8.089-13.351 14.674-27.612 24.87-39.648 44.578-52.62 87.429-106.606 127.631-162.646 16.228-22.622 38.038-35.194 65.091-39.969 21.414-3.78 43.198-2.886 64.648-5.71 39.227-5.165 78.445-10.432 117.582-16.233 49.835-7.386 99.899-13.167 149.591-21.57 18.226-3.082 36.003-8.54 54.566-9.832 33.401-2.325 58.259 14.508 65.592 44.764 2.299 9.486 2.661 19.148 2.294 28.868-0.592 15.679-0.215 31.269 2.725 46.789 5.555 29.322 17.403 56.446 28.437 83.889 7.157 17.8 12.99 36.109 10.751 55.575-0.801 6.964 0.776 8.773 7.339 9.475 13.953 1.494 27.477 4.779 39.192 13.217 21.749 15.665 34.003 48.96 1.12 71.926-2.566 1.792-5.177 3.535-7.868 5.13-2.16 1.28-3.201 2.901-3.208 5.504-0.026 10.474-3.583 20.080-7.569 29.56-1.214 2.887-2.469 5.656-0.531 8.851 3.073 5.065 4.566 10.564 4.981 16.72 0.182 2.704 3.050 4.36 5.445 3.093 19.602-10.368 35.767-7.192 50.221 10.341 21.767 26.403 33.848 56.303 30.208 91.464z" />
<glyph unicode="&#xe936;" glyph-name="arrow-fill-down" d="M1013.76 726.756l-501.76-557.511-501.76 557.511h1003.52z" />
<glyph unicode="&#xe937;" glyph-name="arrow-fill-right" d="M233.245 949.76l557.511-501.76-557.511-501.76v1003.52z" />
<glyph unicode="&#xe938;" glyph-name="arrow-fill-up" d="M10.24 169.245l501.76 557.511 501.76-557.511h-1003.52z" />
<glyph unicode="&#xe939;" glyph-name="arrow-fill-left" d="M790.756-53.76l-557.511 501.76 557.511 501.76v-1003.52z" />
<glyph unicode="&#xe93a;" glyph-name="blind-view" d="M520.192 550.4c6.144 0 10.24-2.048 12.288-2.048 12.288-4.096 26.624-2.048 36.864 6.144 10.24 6.144 18.432 18.432 22.528 30.72 2.048 12.288 0 26.624-6.144 36.864s-18.432 18.432-30.72 20.48c-12.288 2.048-20.48 4.096-30.72 4.096-98.304 4.096-182.272-73.728-186.368-172.032 0-10.24 0-20.48 2.048-30.72 4.096-22.528 22.528-40.96 47.104-43.008 0 0 2.048 0 2.048 0 2.048 0 4.096 0 6.144 0 12.288 2.048 24.576 8.192 32.768 18.432s12.288 22.528 10.24 36.864c0 6.144-2.048 10.24 0 14.336 0 22.528 10.24 40.96 26.624 55.296 14.336 18.432 34.816 26.624 55.296 24.576zM1001.472 480.768c-4.096 4.096-79.872 94.208-194.56 167.936l81.92 81.92c10.24 8.192 14.336 22.528 14.336 34.816s-4.096 24.576-14.336 34.816c-18.432 16.384-51.2 16.384-69.632-2.048l-630.784-630.784c-18.432-18.432-18.432-49.152 0-69.632 10.24-8.192 20.48-14.336 34.816-14.336 12.288 0 24.576 4.096 34.816 14.336l98.304 98.304c61.44-24.576 122.88-36.864 184.32-36.864 241.664 0 454.656 247.808 464.896 258.048 12.288 18.432 12.288 45.056-4.096 63.488zM538.624 255.488c-34.816 0-71.68 6.144-106.496 16.384l20.48 20.48c26.624-14.336 55.296-22.528 86.016-22.528 98.304 0 178.176 79.872 178.176 178.176 0 30.72-8.192 59.392-22.528 86.016l40.96 40.96c71.68-43.008 131.072-96.256 161.792-129.024-57.344-57.344-206.848-190.464-358.4-190.464zM526.336 368.128l92.16 92.16c0-4.096 0-8.192 0-10.24 0-51.2-43.008-88.064-92.16-81.92zM227.328 257.536c16.384 0 32.768 8.192 40.96 22.528 8.192 10.24 10.24 24.576 8.192 36.864s-10.24 24.576-20.48 30.72c-59.392 38.912-104.448 86.016-129.024 114.688 59.392 59.392 212.992 198.656 368.64 198.656 32.768 0 65.536-6.144 100.352-18.432 12.288-4.096 26.624-4.096 36.864 2.048 12.288 6.144 20.48 16.384 24.576 28.672s4.096 26.624-2.048 36.864c-6.144 12.288-16.384 20.48-28.672 24.576-45.056 16.384-90.112 22.528-133.12 22.528-245.76 0-460.8-251.904-471.040-262.144-14.336-16.384-16.384-40.96-2.048-59.392 2.048-4.096 67.584-96.256 180.224-172.032 8.192-4.096 16.384-6.144 26.624-6.144z" />
<glyph unicode="&#xe93b;" glyph-name="view" d="M1007.383 467.519c-8.965 12.264-222.572 300.285-495.388 300.285s-486.432-288.021-495.388-300.273c-8.491-11.635-8.491-27.415 0-39.049 8.955-12.264 222.572-300.285 495.388-300.285s486.422 288.023 495.388 300.275c8.502 11.633 8.502 27.424 0 39.047zM511.996 194.362c-200.957 0-375.008 191.165-426.531 253.66 51.456 62.55 225.142 253.615 426.531 253.615 200.948 0 374.986-191.132 426.531-253.66-51.456-62.548-225.142-253.615-426.531-253.615zM511.996 646.499c-109.451 0-198.5-89.049-198.5-198.5s89.049-198.5 198.5-198.5 198.5 89.049 198.5 198.5-89.049 198.5-198.499 198.5zM511.996 315.667c-72.971 0-132.332 59.363-132.332 132.332s59.363 132.332 132.332 132.332 132.332-59.363 132.332-132.332-59.361-132.332-132.332-132.332z" />
<glyph unicode="&#xe93c;" glyph-name="highlights" d="M631.7 828.33c-8.3 20.43-20.62 31.89-36.7 34.090-34.18 4.7-65.15-35.49-108-91.050-19.4-25.18-39.5-51.23-59.93-72.54-7.76-8.090-7.49-20.93 0.6-28.69 8.1-7.77 20.96-7.5 28.7 0.59 21.96 22.88 42.72 49.81 62.8 75.85 22.49 29.15 56.19 72.88 69.81 75.48 0.9-0.91 2.82-3.35 5.080-8.98l200.82-494.86c2.3-5.66 2.64-8.74 2.64-9.98-11.58-7.68-66.24 0.16-102.66 5.44-61.58 8.84-131.34 18.9-176.82 0.46l-143.19-58.12-125.36 308.92 82.42 33.45c10.4 4.23 15.4 16.060 11.18 26.44-4.21 10.4-16.060 15.39-26.43 11.19l-101.15-41.050c-0.030-0.010-0.080-0.020-0.11-0.020-0.030-0.020-0.040-0.050-0.070-0.050l-78.62-31.91c-50.13-20.33-89.33-58.98-110.38-108.79-21.070-49.84-21.46-104.88-1.11-155.020l3.61-8.88c20.33-50.1 58.96-89.32 108.79-110.36 25.37-10.7 52.060-16.1 78.81-16.1 25.77 0 51.57 5 76.17 15l66.080 26.82 162.32-166.32c3.99-4.080 9.24-6.14 14.52-6.14 5.12 0 10.24 1.92 14.18 5.8 8.020 7.8 8.2 20.68 0.36 28.68l-150.74 154.44 133.98 54.42c35.28 14.3 99.3 5.080 155.74-3.040 69.46-10 119.6-17.22 140.9 9.94 10.020 12.76 10.86 29.6 2.56 50.040l-200.8 494.85zM277.34 216.44c-40.050-16.24-84.070-15.96-123.91 0.88s-70.73 48.2-86.98 88.28l-3.62 8.88c-16.25 40.080-15.93 84.080 0.9 123.89 16.82 39.86 48.18 70.73 88.24 87l59.9 24.31 125.36-308.92-59.89-24.32zM758.46 735.020c-11.2 0-20.3-9.080-20.3-20.29 0-11.2 9.1-20.31 20.3-20.31 54 0 97.96-43.95 97.96-97.99 0-30.63-13.94-58.94-38.22-77.66-8.88-6.85-10.54-19.61-3.7-28.47 4.020-5.22 10-7.91 16.12-7.91 4.28 0 8.66 1.35 12.34 4.21 34.38 26.46 54.080 66.5 54.080 109.83 0 76.42-62.18 138.59-138.58 138.59zM758.46 851.75c-11.2 0-20.3-9.090-20.3-20.29 0-11.23 9.1-20.32 20.3-20.32 118.36 0 214.72-96.31 214.72-214.71 0-54.8-20.64-106.96-58.12-146.87-7.66-8.21-7.26-21.020 0.92-28.72 3.94-3.68 8.9-5.5 13.9-5.5 5.4 0 10.8 2.16 14.8 6.42 44.56 47.47 69.080 109.51 69.080 174.67 0 140.78-114.54 255.32-255.3 255.32z" />
<glyph unicode="&#xe93d;" glyph-name="excel" d="M446.935 162.857c-100.188 0-200.356-0.082-300.544 0-36.823 0.041-63.222 26.337-63.242 63.017-0.061 84.972-0.061 170.025 0 255.017 0 35.144 26.972 61.993 62.28 61.993 200.356 0.041 400.732 0.041 601.149 0.041 38.83 0 64.737-25.887 64.737-64.594 0.041-83.661 0.041-167.322 0-250.962 0-38.789-25.866-64.512-64.799-64.512-99.881-0.041-199.721 0-299.581 0zM287.867 312.3c11.96-19.21 22.897-36.966 34.14-54.497 1.618-2.56 4.628-5.919 7.066-6.001 18.657-0.492 37.315-0.287 57.528-0.287-2.662 4.137-4.219 6.636-5.878 9.073-18.084 25.969-35.922 52.163-54.456 77.804-4.813 6.697-4.383 11.244-0.123 17.818 16.978 26.337 33.341 53.043 49.91 79.606 1.843 2.97 3.502 6.062 6.001 10.363-18.719 0-35.533-0.266-52.367 0.164-5.919 0.143-9.032-2.109-11.776-7.107-9.462-17.347-19.333-34.529-29.819-53.125-10.895 18.596-20.951 36.045-31.293 53.309-1.577 2.621-4.403 6.328-6.738 6.41-17.94 0.532-35.922 0.307-55.398 0.307 2.949-4.915 4.71-8.11 6.656-11.121 16.179-25.252 32.113-50.647 48.742-75.592 4.26-6.41 3.85-10.629-0.307-16.835-17.818-26.563-35.062-53.514-52.49-80.343-1.925-2.99-3.604-6.103-6.39-10.772 18.125 0 34.509 0.307 50.852-0.143 6.164-0.164 9.789 1.782 12.923 7.086 10.506 17.572 21.443 34.857 33.219 53.883zM558.326 305.029c0-11.592 0.328-24.023-0.123-36.434-0.246-6.062 1.987-8.909 7.496-11.121 24.904-9.81 50.565-11.407 76.411-6.287 10.26 2.028 20.562 6.656 29.43 12.37 30.413 19.558 33.608 72.417-0.205 92.652-9.236 5.55-19.005 10.097-28.529 15.073-7.455 3.871-15.626 6.84-22.2 11.899-3.789 2.929-7.393 9.441-6.799 13.742 0.512 3.564 6.902 7.434 11.448 9.011 4.506 1.495 10.097 1.229 14.909 0.164 13.025-2.929 25.866-6.636 39.608-10.26 4.157 10.383 8.499 21.279 12.8 32.174 0.799 2.13 1.393 4.321 2.048 6.431-23.634 14.234-65.495 18.821-93.409 10.342-21.647-6.574-37.11-19.517-40.468-42.865-3.584-24.556 3.215-45.527 25.539-59.167 7.455-4.567 15.38-8.274 23.163-12.288 8.376-4.26 17.449-7.557 25.006-12.964 3.85-2.765 7.844-9.974 6.758-13.824-1.249-4.547-7.332-8.888-12.329-10.916-4.669-1.925-10.854-1.72-15.933-0.635-17.981 3.83-35.738 8.376-54.62 12.902zM409.129 445.686v-193.638h126.73v42.66h-74.568v150.979h-52.163zM196.014 574.198h-29.962c0 25.928 0 51.466 0 77.005 0 78.909 0.020 157.86 0.020 236.81 0.020 35.062 26.030 61.624 61.174 61.665 160.911 0.123 321.802 0.102 482.714-0.184 4.69 0 10.609-2.396 13.947-5.693 70.533-69.693 140.882-139.653 210.944-209.797 3.297-3.318 5.755-9.175 5.755-13.865 0.287-236.462 0.287-472.924 0.287-709.386-0.041-38.646-26.173-64.492-64.963-64.492-215.224-0.020-430.449 0-645.652 0-37.56 0-64.225 26.849-64.184 64.43 0.041 36.106 0.020 72.172 0 108.298v10.465h29.962c0-4.792 0-9.421 0-14.029 0-34.714-0.102-69.468 0-104.223 0.041-21.402 13.353-35 34.591-35 215.572-0.082 431.145-0.061 646.697 0 19.62 0 31.539 12.861 31.539 33.997 0.102 50.606 0.061 101.192 0.061 151.798 0 181.453-0.041 362.967-0.061 544.42 0 14.561-4.628 19.046-19.231 19.026-37.458 0-74.875-0.041-112.312 0.041-36.721 0.102-62.525 25.702-62.689 62.239-0.143 38.113 0 76.227-0.041 114.36-0.020 11.735-5.96 17.674-17.9 17.674-154.829 0-309.658 0.020-464.486-0.041-24.494 0-36.127-11.571-36.147-35.697-0.061-98.816-0.041-197.632-0.061-296.489 0-4.035 0-8.090 0-13.332zM745.083 876.052c-0.205-2.99-0.471-4.854-0.471-6.717-0.041-27.3-0.143-54.579 0.041-81.859 0.143-18.944 12.677-31.621 31.662-31.99 14.787-0.287 29.635-0.082 44.442-0.082 14.684 0 29.368 0 42.127 0-38.728 39.649-77.783 79.667-117.801 120.648z" />
<glyph unicode="&#xe93e;" glyph-name="word" d="M486.55 305.84c6.45 9.18 9.69 23.52 9.69 42.98 0 19.56-3.26 33.98-9.85 43.32-6.53 9.28-16.34 13.98-29.38 13.98-26.48 0-39.74-19.12-39.74-57.3 0-37.84 13.16-56.74 39.47-56.74 13.4 0 23.33 4.58 29.81 13.76zM746.52 162.84c38.92 0 64.8 25.76 64.8 64.54 0.040 83.64 0.040 167.3 0 250.95 0 38.71-25.92 64.59-64.76 64.6-200.38 0-400.78 0-601.15-0.050-35.29 0-62.26-26.84-62.27-61.98-0.070-84.98-0.070-170.040 0-255.040 0.020-36.66 26.42-62.96 63.24-63.020 100.19-0.040 200.38 0 300.56 0 99.9 0 199.74-0.020 299.58 0zM591.48 401.42c7.66 15.34 18.64 27.16 32.96 35.38 14.3 8.27 31.14 12.4 50.54 12.4 21.14 0 41.36-4.59 60.64-13.8l-16.2-41.6c-7.24 3.38-14.48 6.22-21.7 8.54-7.24 2.32-15 3.52-23.28 3.52-12.58 0-22.42-5.2-29.46-15.48-7.040-10.32-10.56-24.52-10.56-42.64 0-37.66 14.32-56.48 42.96-56.48 8.66 0 17.040 1.18 25.16 3.62 8.14 2.4 16.28 5.3 24.5 8.7v-44.72c-16.32-7.24-34.82-10.86-55.42-10.86-29.54 0-52.18 8.6-67.92 25.72-15.78 17.14-23.66 41.9-23.66 74.3 0 20.24 3.84 38.060 11.44 53.4zM306.77 277.2c-17.98-17.7-43.27-26.5-75.83-26.5h-63.32v195.69h67.73c31.42 0 55.66-8.040 72.75-24.070 17.1-16.1 25.64-39.28 25.64-69.6 0-32.68-8.99-57.84-26.97-75.52zM361.58 349.1c0 32.56 8.14 57.42 24.43 74.62 16.29 17.16 39.97 25.75 71 25.75 31.16 0 54.76-8.53 70.83-25.55 16.080-17.040 24.12-42.1 24.12-75.1 0-32.94-8.1-57.96-24.24-75.1-16.17-17.12-39.82-25.72-70.98-25.72-30.68 0-54.21 8.64-70.59 25.84-16.38 17.24-24.57 42.32-24.57 75.26zM235.89 403.7h-15.4v-109.64h11.78c16.070 0 27.84 4.66 35.35 14 7.49 9.32 11.23 23.56 11.23 42.76 0 17.94-3.54 31.22-10.64 39.92-7.090 8.64-17.87 12.96-32.32 12.96zM940.64 720.15c0 4.69-2.46 10.55-5.76 13.85-70.080 70.16-140.4 140.11-210.92 209.81-3.36 3.3-9.24 5.7-13.94 5.7-160.92 0.28-321.85 0.3-482.76 0.17-35.14-0.040-61.17-26.6-61.18-61.66 0-78.94-0.010-157.89-0.030-236.81 0-25.55 0-51.090 0-77.010h29.96c0 5.25 0 9.3 0 13.34 0.010 98.85 0 197.67 0.070 296.52 0.010 24.11 11.65 35.68 36.14 35.69 154.83 0.070 309.7 0.060 464.52 0.060 11.9 0 17.88-5.94 17.88-17.69 0.040-38.12-0.12-76.25 0.040-114.36 0.16-36.53 25.98-62.13 62.64-62.22 37.46-0.11 74.9-0.070 112.36-0.060 14.6 0.020 19.24-4.46 19.24-19.030 0-181.47 0.040-362.97 0.060-544.45 0-50.6 0.060-101.2-0.060-151.78-0.020-21.16-11.92-34-31.56-34-215.56-0.060-431.13-0.080-646.7 0-21.24 0-34.55 13.58-34.6 34.98-0.080 34.76 0 69.5 0.010 104.24 0 4.6 0 9.22 0 14h-29.97v-10.44c0.010-36.14 0.060-72.2 0-108.3-0.040-37.62 26.62-64.46 64.2-64.46 215.23 0 430.44-0.020 645.68 0 38.78 0 64.92 25.88 64.94 64.52 0.040 236.46 0.040 472.92-0.26 709.39zM820.78 755.42c-14.82 0-29.64-0.22-44.48 0.060-18.98 0.37-31.52 13.040-31.66 32-0.16 27.28-0.060 54.57 0 81.85 0 1.88 0.26 3.73 0.48 6.72 40-40.97 79.060-80.98 117.76-120.63-12.76 0-27.42 0-42.1 0z" />
<glyph unicode="&#xe93f;" glyph-name="zip" d="M601.84 365.4c4.68 4.48 7.020 10.64 7.020 18.48 0 13.22-7.3 19.82-21.94 19.82h-13.66v-45h9.62c7.94 0 14.26 2.24 18.96 6.7zM746.5 162.84c38.94 0 64.8 25.76 64.8 64.54 0.060 83.64 0.060 167.3 0 250.95 0 38.71-25.92 64.59-64.74 64.6-200.4 0-400.76 0-601.14-0.050-35.28 0-62.26-26.84-62.27-61.98-0.070-84.98-0.070-170.040 0-255.040 0.020-36.66 26.42-62.96 63.25-63.020 100.18-0.040 200.37 0 300.57 0 99.83 0 199.69-0.020 299.53 0zM520.41 446.39h67.71c24.72 0 43.28-5.4 55.66-16.19 12.42-10.8 18.64-26.14 18.64-46.060 0-21.86-6.48-38.74-19.36-50.66s-31.22-17.86-54.94-17.86h-14.86v-64.92h-52.85v195.69zM396.98 250.7h-152.48v32.64l84.73 120.36h-82.71v42.69h148.31v-32.51l-84.74-120.48h86.89v-42.7zM424.95 446.39h53.12v-195.69h-53.12v195.69zM940.64 720.15c0 4.69-2.46 10.55-5.78 13.85-70.080 70.16-140.4 140.11-210.94 209.81-3.34 3.3-9.22 5.7-13.92 5.7-160.92 0.28-321.81 0.3-482.72 0.17-35.14-0.040-61.17-26.6-61.19-61.66 0-78.94-0.010-157.89-0.020-236.81 0-25.55 0-51.090 0-77.010h29.95c0 5.25 0 9.3 0 13.34 0.020 98.85 0 197.67 0.070 296.52 0.020 24.11 11.65 35.68 36.14 35.69 154.84 0.070 309.65 0.060 464.49 0.060 11.92 0 17.86-5.94 17.9-17.69 0.020-38.12-0.12-76.25 0.020-114.36 0.16-36.53 25.98-62.13 62.66-62.22 37.46-0.11 74.88-0.070 112.36-0.060 14.6 0.020 19.22-4.46 19.22-19.030 0.020-181.47 0.060-362.97 0.060-544.45 0-50.6 0.040-101.2-0.060-151.78 0-21.16-11.9-34-31.54-34-215.56-0.060-431.13-0.080-646.69 0-21.23 0-34.54 13.58-34.6 34.98-0.080 34.76 0 69.5 0.010 104.24 0 4.6 0 9.22 0 14h-29.97v-10.44c0.020-36.14 0.060-72.2 0-108.3-0.040-37.62 26.63-64.46 64.2-64.46 215.22 0 430.43-0.020 645.65 0 38.8 0 64.94 25.88 64.96 64.52 0 236.46 0 472.92-0.26 709.39zM820.76 755.42c-14.8 0-29.66-0.22-44.46 0.060-18.98 0.37-31.52 13.040-31.66 32-0.2 27.28-0.080 54.57-0.040 81.85 0 1.88 0.28 3.73 0.5 6.72 40.020-40.97 79.060-80.98 117.78-120.63-12.76 0-27.44 0-42.12 0z" />
</font>
</defs>
</svg>
